<?xml version="1.0" standalone="no"?>
<!DOCTYPE svg PUBLIC "-//W3C//DTD SVG 1.1//EN" "http://www.w3.org/Graphics/SVG/1.1/DTD/svg11.dtd" >
<svg>
<metadata>
Created by FontForge 20090622 at Fri Sep 16 17:28:51 2016
 By deploy user
Copyright 2008 Monotype Imaging Inc. All rights reserved.
</metadata>
<defs>
<font id="TanseekModernW20-Medium" horiz-adv-x="0" >
  <font-face 
    font-family="TanseekModernW20-Medium"
    font-weight="400"
    font-stretch="normal"
    units-per-em="1000"
    panose-1="2 11 5 4 3 2 2 2 3 3"
    ascent="675"
    descent="-325"
    x-height="332"
    cap-height="467"
    bbox="-89 -327 939 909"
    underline-thickness="50"
    underline-position="-100"
    unicode-range="U+0020-U+FEFC"
  />
<missing-glyph horiz-adv-x="500" 
d="M12 665h475v-665h-475v665zM250 375l161 243h-323zM60 91l161 242l-161 242v-484zM278 333l162 -243v485zM250 290l-162 -242h323z" />
    <glyph glyph-name="IJ" unicode="IJ" horiz-adv-x="414" 
d="M51 0v467h71v-467h-71zM181 61q14 -4 30 -6.5t29 -2.5q26 0 41 10t15 46v298h-82l10 61h142v-328q0 -44 -6 -72t-19 -44.5t-33.5 -22.5t-48.5 -6q-11 0 -32.5 1.5t-32.5 4.5z" />
    <glyph glyph-name="ij" unicode="ij" horiz-adv-x="316" 
d="M121 439q0 -17 -12 -29.5t-30 -12.5q-17 0 -30 12t-13 29q0 18 13 30.5t30 12.5q18 0 30 -12.5t12 -29.5zM154 6q-20 -11 -55 -11q-4 0 -13 1t-18 6t-16 15t-7 27v288h67v-272q0 -18 16 -18h8t9 2zM281 439q0 -17 -13 -29.5t-30 -12.5t-29.5 12t-12.5 29q0 18 12.5 30.5
t29.5 12.5t30 -12.5t13 -29.5zM204 332h67v-364q0 -22 -3 -41t-13 -33.5t-28 -22.5t-49 -8q-14 0 -32.5 2.5t-35.5 8.5l13 55q9 -3 21.5 -5.5t22.5 -2.5q20 0 28.5 7.5t8.5 31.5v372z" />
    <glyph glyph-name="napostrophe" unicode="&#x27;n" horiz-adv-x="394" 
d="M389 6q-20 -11 -54 -11q-4 0 -13 1t-18.5 6t-16.5 15t-7 27v180q0 32 -9.5 42.5t-32.5 10.5q-17 0 -33.5 -5.5t-31.5 -13t-26 -16l-17 -13.5v-229h-67v332h67v-44q9 9 22.5 17.5t29.5 16t33 12t33 4.5q23 0 41.5 -4t31 -15.5t19.5 -32.5t7 -56v-170q0 -18 16 -18h8.5
t9.5 2zM-47 367q11 7 26 19.5t15 25.5q0 9 -4.5 15.5t-9.5 13t-9.5 13.5t-4.5 16q0 12 10 23.5t30 11.5q18 0 30 -15t12 -42q0 -39 -26 -66.5t-59 -42.5z" />
    <glyph glyph-name="uni0622" unicode="&#x627;&#x653;" horiz-adv-x="157" 
d="M132 557l-10 -8t-12 -4t-15 4.5t-16 9.5l-15 9.5t-11 4.5t-7 -2.5t-5 -4.5l-20 -19l-19 19l24 24q5 5 10 8t13 3q9 0 17 -4t15.5 -9l13.5 -9t11 -4q7 0 13 7l17 18l19 -19zM46 -36v503h65v-467z" />
    <glyph glyph-name="uni0623" unicode="&#x627;&#x654;" horiz-adv-x="157" 
d="M46 -36v503h65v-467zM19 545v27h29q-8 13 -8 26q0 20 13 36.5t39 16.5h28v-27h-19q-32 0 -32 -26q0 -14 9 -20t23 -6h39v-27h-121z" />
    <glyph glyph-name="uni0624" unicode="&#x648;&#x654;" horiz-adv-x="332" 
d="M105 411v26h29q-8 14 -8 27q0 20 13 36t39 16h28v-26h-18q-33 0 -33 -26q0 -14 9.5 -20.5t23.5 -6.5h38v-26h-121zM77 -117h10q28 0 52.5 4.5t42.5 16t28.5 30t10.5 46.5v20h-55q-54 0 -87 26.5t-33 86.5v106q0 52 29.5 82.5t83.5 30.5h127v-340q0 -80 -38 -120.5
t-128 -46.5zM221 268h-64q-26 0 -36 -11.5t-10 -37.5v-106q0 -33 15 -41t45 -8h50v204z" />
    <glyph glyph-name="uni0625" unicode="&#x627;&#x655;" horiz-adv-x="157" 
d="M46 0v467h65v-467h-65zM18 -175v27h29q-8 13 -8 26q0 20 13 36.5t39 16.5h29v-27h-19q-33 0 -33 -26q0 -14 9.5 -20t23.5 -6h38v-27h-121z" />
    <glyph glyph-name="uni0626" unicode="&#x64a;&#x654;" horiz-adv-x="517" 
d="M407 0h-58q-51 0 -84 26.5t-33 86.5v109q0 47 27.5 78.5t85.5 31.5h125v-64h-128q-23 0 -34.5 -10.5t-11.5 -38.5v-106q0 -26 11.5 -37.5t34.5 -11.5h128v-82q0 -41 -17.5 -70.5t-47 -49.5t-66.5 -29.5t-76 -9.5q-36 0 -72.5 9t-66.5 28t-48.5 49.5t-18.5 74.5v166l63 42
v-198q0 -28 11.5 -48t31 -33t45.5 -19t56 -6q21 0 45.5 4.5t46 15.5t36.5 30t15 49v13zM28 255v27h29q-8 13 -8 26q0 20 13 36.5t39 16.5h28v-27h-18q-33 0 -33 -26q0 -14 9.5 -20t23.5 -6h38v-27h-121z" />
    <glyph glyph-name="uniFB00" unicode="ff" horiz-adv-x="448" 
d="M61 0v279h-53l11 53h42v47q0 22 3 41.5t12.5 34t27.5 23t49 8.5q40 0 69 -11l-12 -55q-11 3 -22.5 5.5t-22.5 2.5q-22 0 -30 -7.5t-8 -32.5v-56h72v-53h-72v-279h-66zM291 0v279h-53l11 53h42v47q0 22 3 41.5t12.5 34t27.5 23t49 8.5q40 0 69 -11l-12 -55
q-11 3 -22.5 5.5t-22.5 2.5q-22 0 -30 -7.5t-8 -32.5v-56h72v-53h-72v-279h-66z" />
    <glyph glyph-name="uniFB01" unicode="fi" horiz-adv-x="386" 
d="M61 0v279h-53l11 53h42v47q0 22 3 41.5t12.5 34t27.5 23t49 8.5q40 0 69 -11l-12 -55q-11 3 -22.5 5.5t-22.5 2.5q-22 0 -30 -7.5t-8 -32.5v-56h72v-53h-72v-279h-66zM346 439q0 -17 -12 -29.5t-30 -12.5q-17 0 -30 12t-13 29q0 18 13 30.5t30 12.5q18 0 30 -12.5
t12 -29.5zM379 6q-20 -11 -55 -11q-4 0 -13 1t-18 6t-16 15t-7 27v288h67v-272q0 -18 16 -18h8t9 2z" />
    <glyph glyph-name="uniFB02" unicode="fl" horiz-adv-x="383" 
d="M61 0v279h-53l11 53h42v47q0 22 3 41.5t12.5 34t27.5 23t49 8.5q40 0 69 -11l-12 -55q-11 3 -22.5 5.5t-22.5 2.5q-22 0 -30 -7.5t-8 -32.5v-56h72v-53h-72v-279h-66zM378 6q-19 -11 -54 -11q-4 0 -13 1t-18.5 6t-16.5 15t-7 27v423h67v-407q0 -18 16 -18h8.5t9.5 2z" />
    <glyph glyph-name="uniFB03" unicode="ffi" horiz-adv-x="609" 
d="M61 0v279h-53l11 53h42v47q0 22 3 41.5t12.5 34t27.5 23t49 8.5q40 0 69 -11l-12 -55q-11 3 -22.5 5.5t-22.5 2.5q-22 0 -30 -7.5t-8 -32.5v-56h72v-53h-72v-279h-66zM291 0v279h-53l11 53h42v47q0 22 3 41.5t12.5 34t27.5 23t49 8.5q40 0 69 -11l-12 -55
q-11 3 -22.5 5.5t-22.5 2.5q-22 0 -30 -7.5t-8 -32.5v-56h72v-53h-72v-279h-66zM569 439q0 -17 -12 -29.5t-30 -12.5q-17 0 -30 12t-13 29q0 18 13 30.5t30 12.5q18 0 30 -12.5t12 -29.5zM602 6q-20 -11 -55 -11q-4 0 -13 1t-18 6t-16 15t-7 27v288h67v-272q0 -18 16 -18h8
t9 2z" />
    <glyph glyph-name="uniFB04" unicode="ffl" horiz-adv-x="607" 
d="M61 0v279h-53l11 53h42v47q0 22 3 41.5t12.5 34t27.5 23t49 8.5q40 0 69 -11l-12 -55q-11 3 -22.5 5.5t-22.5 2.5q-22 0 -30 -7.5t-8 -32.5v-56h72v-53h-72v-279h-66zM291 0v279h-53l11 53h42v47q0 22 3 41.5t12.5 34t27.5 23t49 8.5q40 0 69 -11l-12 -55
q-11 3 -22.5 5.5t-22.5 2.5q-22 0 -30 -7.5t-8 -32.5v-56h72v-53h-72v-279h-66zM602 6q-19 -11 -54 -11q-4 0 -13 1t-18.5 6t-16.5 15t-7 27v423h67v-407q0 -18 16 -18h8.5t9.5 2z" />
    <glyph glyph-name="uniFDF2" unicode="&#xfedf;&#xfee0;&#xfeea;" horiz-adv-x="682" arabic-form="isolated" 
d="M414 733v145h27v-145h-27zM378 545q-40 0 -40 44v65h27v-65q0 -9 2 -13t12 -4h36v82h27v-82h35q14 0 14 17v65h27v-63q0 -18 -8 -32t-31 -14h-101zM221 0v42l-31 -42h-24q-60 0 -90 29.5t-30 83.5v106q0 57 32.5 85t80.5 28h127v-268h110v403h65v-403h60q26 0 38 10
t12 39v354h65v-359q0 -48 -27 -78t-87 -30h-301zM221 268h-64q-20 0 -33 -9.5t-13 -37.5v-109q0 -22 9 -35t41 -13h60v204z" />
    <glyph glyph-name="uniFEF5" unicode="&#xfedf;&#xfe82;" horiz-adv-x="417" arabic-form="isolated" 
d="M147 423q-5 -5 -10 -8.5t-12 -3.5t-15 4t-16 9.5t-15 9.5t-11 4q-6 0 -12 -6l-20 -19l-19 19l24 24q5 5 10 8t13 3q9 0 17 -4t15.5 -9.5t14 -9.5t10.5 -4q5 0 7.5 2t5.5 5l18 18l19 -19zM46 0v64h116l-105 268h69l104 -268h26q26 0 38.5 10t12.5 39v354h64v-359
q0 -48 -26.5 -78t-86.5 -30h-212z" />
    <glyph glyph-name="uniFEF6" unicode="&#xfee0;&#xfe82;" horiz-adv-x="406" arabic-form="final" 
d="M46 0v64h116l-105 268h69l104 -268h77v403h64v-403h40v-64h-365zM147 423q-5 -5 -10 -8.5t-12 -3.5t-15 4t-16 9.5t-15 9.5t-11 4q-6 0 -12 -6l-20 -19l-19 19l24 24q5 5 10 8t13 3q9 0 17 -4t15.5 -9.5t14 -9.5t10.5 -4q5 0 7.5 2t5.5 5l18 18l19 -19z" />
    <glyph glyph-name="uniFEF7" unicode="&#xfedf;&#xfe84;" horiz-adv-x="417" arabic-form="isolated" 
d="M46 0v64h116l-105 268h69l104 -268h26q26 0 38.5 10t12.5 39v354h64v-359q0 -48 -26.5 -78t-86.5 -30h-212zM31 411v26h29q-8 14 -8 27q0 20 13 36t39 16h29v-26h-19q-33 0 -33 -26q0 -14 9.5 -20.5t23.5 -6.5h38v-26h-121z" />
    <glyph glyph-name="uniFEF8" unicode="&#xfee0;&#xfe84;" horiz-adv-x="406" arabic-form="final" 
d="M46 0v64h116l-105 268h69l104 -268h77v403h64v-403h40v-64h-365zM31 411v26h29q-8 14 -8 27q0 20 13 36t39 16h29v-26h-19q-33 0 -33 -26q0 -14 9.5 -20.5t23.5 -6.5h38v-26h-121z" />
    <glyph glyph-name="uniFEF9" unicode="&#xfedf;&#xfe88;" horiz-adv-x="417" arabic-form="isolated" 
d="M47 -175v27h29q-8 13 -8 26q0 20 13 36.5t39 16.5h29v-27h-19q-33 0 -33 -26q0 -14 9.5 -20t23.5 -6h38v-27h-121zM46 0v64h116l-105 268h69l104 -268h26q26 0 38.5 10t12.5 39v354h64v-359q0 -48 -26.5 -78t-86.5 -30h-212z" />
    <glyph glyph-name="uniFEFA" unicode="&#xfee0;&#xfe88;" horiz-adv-x="406" arabic-form="final" 
d="M46 0v64h116l-105 268h69l104 -268h77v403h64v-403h40v-64h-365zM46 -175v27h29q-8 13 -8 26q0 20 13 36.5t39 16.5h29v-27h-19q-33 0 -33 -26q0 -14 9.5 -20t23.5 -6h38v-27h-121z" />
    <glyph glyph-name="uniFEFB" unicode="&#xfedf;&#xfe8e;" horiz-adv-x="417" arabic-form="isolated" 
d="M46 0v64h116l-105 268h69l104 -268h26q26 0 38.5 10t12.5 39v354h64v-359q0 -48 -26.5 -78t-86.5 -30h-212z" />
    <glyph glyph-name="uniFEFC" unicode="&#xfee0;&#xfe8e;" horiz-adv-x="406" arabic-form="final" 
d="M46 0v64h116l-105 268h69l104 -268h77v403h64v-403h40v-64h-365z" />
    <glyph glyph-name="uni0621" unicode="&#x621;" horiz-adv-x="397" arabic-form="isolated" 
d="M350 24q-66 -15 -130 -52.5t-119 -79.5l-35 55q24 18 51 35t53 30q-26 8 -49 23.5t-39.5 37t-26 47t-9.5 54.5q0 42 15.5 72.5t41.5 50.5t59.5 29.5t69.5 9.5q14 0 28 -1t28 -3v-65q-24 7 -51 7q-21 0 -43 -5.5t-40 -17t-29.5 -30t-11.5 -44.5q0 -29 11.5 -49.5
t29.5 -34.5t41 -20.5t46 -6.5q29 0 57 8t52 22v-72z" />
    <glyph glyph-name="uni0627" unicode="&#x627;" horiz-adv-x="157" arabic-form="isolated" 
d="M46 -36v503h65v-467z" />
    <glyph glyph-name="uni0628" unicode="&#x628;" horiz-adv-x="618" arabic-form="isolated" 
d="M162 0q-55 0 -85.5 29t-30.5 87v97l65 42v-142q0 -24 10 -36.5t36 -12.5h304q46 0 46 44v224h64v-221q0 -48 -27.5 -79.5t-87.5 -31.5h-294zM349 -136q0 -17 -11.5 -28t-28.5 -11q-16 0 -27 11t-11 28q0 16 11 27.5t27 11.5q17 0 28.5 -11.5t11.5 -27.5z" />
    <glyph glyph-name="uni0629" unicode="&#x629;" horiz-adv-x="332" arabic-form="isolated" 
d="M118 411q-17 0 -28.5 12t-11.5 28t11.5 27.5t28.5 11.5q16 0 27.5 -11.5t11.5 -27.5t-11.5 -28t-27.5 -12zM216 411q-16 0 -27.5 12t-11.5 28t11.5 27.5t27.5 11.5t27.5 -11.5t11.5 -27.5t-11.5 -28t-27.5 -12zM286 113q0 -32 -10.5 -54t-27 -35t-38.5 -18.5t-44 -5.5
q-25 0 -47 6.5t-38 20.5t-25.5 36t-9.5 52v104q0 54 30 83.5t81 29.5h129v-219zM221 268h-64q-20 0 -33 -10t-13 -39v-108q0 -29 16 -38.5t39 -9.5t39 9.5t16 38.5v157z" />
    <glyph glyph-name="uni062A" unicode="&#x62a;" horiz-adv-x="618" arabic-form="isolated" 
d="M261 411q-17 0 -28.5 12t-11.5 28t11.5 27.5t28.5 11.5q16 0 27.5 -11.5t11.5 -27.5t-11.5 -28t-27.5 -12zM359 411q-16 0 -27 12t-11 28t11 27.5t27 11.5t27.5 -11.5t11.5 -27.5t-11.5 -28t-27.5 -12zM162 0q-55 0 -85.5 29t-30.5 87v97l65 42v-142q0 -24 10 -36.5
t36 -12.5h304q46 0 46 44v224h64v-221q0 -48 -27.5 -79.5t-87.5 -31.5h-294z" />
    <glyph glyph-name="uni062B" unicode="&#x62b;" horiz-adv-x="618" arabic-form="isolated" 
d="M261 411q-17 0 -28.5 12t-11.5 28t11.5 27.5t28.5 11.5q16 0 27.5 -11.5t11.5 -27.5t-11.5 -28t-27.5 -12zM359 411q-16 0 -27 12t-11 28t11 27.5t27 11.5t27.5 -11.5t11.5 -27.5t-11.5 -28t-27.5 -12zM344 539q0 -14 -10.5 -24.5t-24.5 -10.5t-24.5 10.5t-10.5 24.5
t10.5 24.5t24.5 10.5t24.5 -10.5t10.5 -24.5zM162 0q-55 0 -85.5 29t-30.5 87v97l65 42v-142q0 -24 10 -36.5t36 -12.5h304q46 0 46 44v224h64v-221q0 -48 -27.5 -79.5t-87.5 -31.5h-294z" />
    <glyph glyph-name="uni062C" unicode="&#x62c;" horiz-adv-x="400" arabic-form="isolated" 
d="M164 -175q-23 0 -44.5 8.5t-38 24t-26 37.5t-9.5 48t9.5 48.5t26 38.5t38.5 25t47 9h76q21 0 33.5 10t12.5 39v108q0 27 -11.5 37t-34.5 10h-129v64h126q59 0 86 -31t27 -82v-106q0 -57 -30.5 -85t-81.5 -28h-73q-22 0 -39.5 -15t-17.5 -40q0 -28 18.5 -42t46.5 -14h47
l-43 -64h-16zM353 -141q0 -16 -11 -27t-27 -11q-17 0 -28 11t-11 27q0 17 11 28t28 11q16 0 27 -11t11 -28z" />
    <glyph glyph-name="uni062D" unicode="&#x62d;" horiz-adv-x="400" arabic-form="isolated" 
d="M164 -175q-23 0 -44.5 8.5t-38 24t-26 37.5t-9.5 48t9.5 48.5t26 38.5t38.5 25t47 9h76q21 0 33.5 10t12.5 39v108q0 27 -11.5 37t-34.5 10h-129v64h126q59 0 86 -31t27 -82v-106q0 -57 -30.5 -85t-81.5 -28h-73q-22 0 -39.5 -15t-17.5 -40q0 -28 18.5 -42t46.5 -14h176
l-43 -64h-145z" />
    <glyph glyph-name="uni062E" unicode="&#x62e;" horiz-adv-x="400" arabic-form="isolated" 
d="M207 411q-16 0 -27.5 12t-11.5 28t11.5 27.5t27.5 11.5t27.5 -11.5t11.5 -27.5t-11 -28t-28 -12zM164 -175q-23 0 -44.5 8.5t-38 24t-26 37.5t-9.5 48t9.5 48.5t26 38.5t38.5 25t47 9h76q21 0 33.5 10t12.5 39v108q0 27 -11.5 37t-34.5 10h-129v64h126q59 0 86 -31
t27 -82v-106q0 -57 -30.5 -85t-81.5 -28h-73q-22 0 -39.5 -15t-17.5 -40q0 -28 18.5 -42t46.5 -14h176l-43 -64h-145z" />
    <glyph glyph-name="uni062F" unicode="&#x62f;" horiz-adv-x="349" arabic-form="isolated" 
d="M46 0v64h146q26 0 36.5 11.5t10.5 33.5v63q0 53 -27 74.5t-67 21.5h-43v64h47q29 0 56.5 -10t49 -29t34.5 -48t13 -66v-73q0 -17 -5 -35.5t-18 -34t-35.5 -26t-56.5 -10.5h-141z" />
    <glyph glyph-name="uni0630" unicode="&#x630;" horiz-adv-x="349" arabic-form="isolated" 
d="M141 411q-16 0 -27.5 12t-11.5 28t11.5 27.5t27.5 11.5t27.5 -11.5t11.5 -27.5t-11.5 -28t-27.5 -12zM46 0v64h146q26 0 36.5 11.5t10.5 33.5v63q0 53 -27 74.5t-67 21.5h-43v64h47q29 0 56.5 -10t49 -29t34.5 -48t13 -66v-73q0 -17 -5 -35.5t-18 -34t-35.5 -26
t-56.5 -10.5h-141z" />
    <glyph glyph-name="uni0631" unicode="&#x631;" horiz-adv-x="208" arabic-form="isolated" 
d="M17 -118q25 8 40.5 17t24.5 22t12 30t3 40v341h64v-361q0 -51 -25.5 -88.5t-73.5 -57.5z" />
    <glyph glyph-name="uni0632" unicode="&#x632;" horiz-adv-x="208" arabic-form="isolated" 
d="M129 411q-17 0 -28 12t-11 28t11 27.5t28 11.5q16 0 27 -11.5t11 -27.5t-11 -28t-27 -12zM17 -118q25 8 40.5 17t24.5 22t12 30t3 40v341h64v-361q0 -51 -25.5 -88.5t-73.5 -57.5z" />
    <glyph glyph-name="uni0633" unicode="&#x633;" horiz-adv-x="857" arabic-form="isolated" 
d="M461 0v-18q0 -42 -18.5 -72t-48 -49.5t-67 -28.5t-74.5 -9q-35 0 -72 9t-67 28t-49 49.5t-19 72.5v168l65 42v-203q0 -28 12.5 -47.5t33 -31.5t45.5 -17t51 -5q27 0 53 5.5t46.5 17.5t32.5 31t12 46v344h64v-268h111v268h64v-268h64q22 0 34.5 10t12.5 35v223h64v-220
q0 -49 -27.5 -80.5t-87.5 -31.5h-235z" />
    <glyph glyph-name="uni0634" unicode="&#x634;" horiz-adv-x="857" arabic-form="isolated" 
d="M555 411q-16 0 -27 12t-11 28t11 27.5t27 11.5q17 0 28 -11.5t11 -27.5t-11 -28t-28 -12zM654 411q-16 0 -27.5 12t-11.5 28t11.5 27.5t27.5 11.5t27.5 -11.5t11.5 -27.5t-11.5 -28t-27.5 -12zM639 539q0 -14 -10.5 -24.5t-24.5 -10.5t-24.5 10.5t-10.5 24.5t10.5 24.5
t24.5 10.5t24.5 -10.5t10.5 -24.5zM461 0v-18q0 -42 -18.5 -72t-48 -49.5t-67 -28.5t-74.5 -9q-35 0 -72 9t-67 28t-49 49.5t-19 72.5v168l65 42v-203q0 -28 12.5 -47.5t33 -31.5t45.5 -17t51 -5q27 0 53 5.5t46.5 17.5t32.5 31t12 46v344h64v-268h111v268h64v-268h64
q22 0 34.5 10t12.5 35v223h64v-220q0 -49 -27.5 -80.5t-87.5 -31.5h-235z" />
    <glyph glyph-name="uni0635" unicode="&#x635;" horiz-adv-x="801" arabic-form="isolated" 
d="M461 0v-18q0 -42 -18.5 -72t-48 -49.5t-67 -28.5t-74.5 -9q-35 0 -72 9t-67 28t-49 49.5t-19 72.5v168l65 42v-203q0 -28 12.5 -47.5t33 -31.5t45.5 -17t51 -5q27 0 53 5.5t46.5 17.5t32.5 31t12 46v344h64v-57l151 54q19 6 40 6q20 0 38.5 -8t33 -21.5t23 -32t8.5 -39.5
v-128q0 -16 -5 -34.5t-18 -34.5t-34.5 -26.5t-54.5 -10.5h-182zM690 227q0 21 -10 32.5t-27 11.5q-16 0 -33 -7l-122 -44q-11 -4 -18 -7t-11.5 -8t-6 -12t-1.5 -19v-110h183q46 0 46 43v120z" />
    <glyph glyph-name="uni0636" unicode="&#x636;" horiz-adv-x="801" arabic-form="isolated" 
d="M575 411q-16 0 -27.5 12t-11.5 28t11.5 27.5t27.5 11.5t27.5 -11.5t11.5 -27.5t-11.5 -28t-27.5 -12zM461 0v-18q0 -42 -18.5 -72t-48 -49.5t-67 -28.5t-74.5 -9q-35 0 -72 9t-67 28t-49 49.5t-19 72.5v168l65 42v-203q0 -28 12.5 -47.5t33 -31.5t45.5 -17t51 -5
q27 0 53 5.5t46.5 17.5t32.5 31t12 46v344h64v-57l151 54q19 6 40 6q20 0 38.5 -8t33 -21.5t23 -32t8.5 -39.5v-128q0 -16 -5 -34.5t-18 -34.5t-34.5 -26.5t-54.5 -10.5h-182zM690 227q0 21 -10 32.5t-27 11.5q-16 0 -33 -7l-122 -44q-11 -4 -18 -7t-11.5 -8t-6 -12
t-1.5 -19v-110h183q46 0 46 43v120z" />
    <glyph glyph-name="uni0637" unicode="&#x637;" horiz-adv-x="550" arabic-form="isolated" 
d="M439 227q0 21 -10 32.5t-27 11.5q-16 0 -33 -7l-123 -44q-11 -4 -18 -7t-11 -8t-6 -12t-2 -19v-110h184q46 0 46 43v120zM209 0v-28l-63 -34v62h-100l30 64h70v403h63v-192l152 54q19 6 39 6t38.5 -8t33 -21.5t23 -32t8.5 -39.5v-128q0 -16 -5 -34.5t-17.5 -34.5
t-34.5 -26.5t-55 -10.5h-182z" />
    <glyph glyph-name="uni0638" unicode="&#x638;" horiz-adv-x="550" arabic-form="isolated" 
d="M363 451q0 -16 -11.5 -28t-28.5 -12q-16 0 -27.5 12t-11.5 28t11.5 27.5t27.5 11.5q17 0 28.5 -11.5t11.5 -27.5zM439 227q0 21 -10 32.5t-27 11.5q-16 0 -33 -7l-123 -44q-11 -4 -18 -7t-11 -8t-6 -12t-2 -19v-110h184q46 0 46 43v120zM209 0v-28l-63 -34v62h-100l30 64
h70v403h63v-192l152 54q19 6 39 6t38.5 -8t33 -21.5t23 -32t8.5 -39.5v-128q0 -16 -5 -34.5t-17.5 -34.5t-34.5 -26.5t-55 -10.5h-182z" />
    <glyph glyph-name="uni0639" unicode="&#x639;" horiz-adv-x="400" arabic-form="isolated" 
d="M167 -175q-23 0 -44.5 8t-38.5 23.5t-27.5 37.5t-10.5 49q0 28 11.5 53t34.5 42q-14 16 -19.5 31t-5.5 40v114q0 19 6 38.5t19 35.5t34 25.5t51 9.5h130v-64h-129q-23 0 -34.5 -9.5t-11.5 -34.5v-116q0 -21 10.5 -32.5t35.5 -11.5h175v-64h-182q-29 0 -44.5 -16
t-15.5 -39q0 -29 19 -42.5t44 -13.5h178l-43 -64h-142z" />
    <glyph glyph-name="uni063A" unicode="&#x63a;" horiz-adv-x="400" arabic-form="isolated" 
d="M202 411q-17 0 -28.5 12t-11.5 28t11.5 27.5t28.5 11.5q16 0 27 -11.5t11 -27.5t-11 -28t-27 -12zM167 -175q-23 0 -44.5 8t-38.5 23.5t-27.5 37.5t-10.5 49q0 28 11.5 53t34.5 42q-14 16 -19.5 31t-5.5 40v114q0 19 6 38.5t19 35.5t34 25.5t51 9.5h130v-64h-129
q-23 0 -34.5 -9.5t-11.5 -34.5v-116q0 -21 10.5 -32.5t35.5 -11.5h175v-64h-182q-29 0 -44.5 -16t-15.5 -39q0 -29 19 -42.5t44 -13.5h178l-43 -64h-142z" />
    <glyph glyph-name="uni0641" unicode="&#x641;" horiz-adv-x="618" arabic-form="isolated" 
d="M162 0q-55 0 -85.5 29t-30.5 87v97l65 42v-142q0 -24 10 -36.5t36 -12.5h175v155q0 54 30 83.5t81 29.5h128v-221q0 -48 -27.5 -79.5t-87.5 -31.5h-294zM507 268h-65q-20 0 -33 -10t-13 -39v-155h65q46 0 46 44v160zM453 411q-16 0 -27.5 12t-11.5 28t11.5 27.5
t27.5 11.5t27.5 -11.5t11.5 -27.5t-11 -28t-28 -12z" />
    <glyph glyph-name="uni0642" unicode="&#x642;" horiz-adv-x="507" arabic-form="isolated" 
d="M293 411q-16 0 -28 12t-12 28t11.5 27.5t28.5 11.5q16 0 27.5 -11.5t11.5 -27.5t-11.5 -28t-27.5 -12zM391 411q-16 0 -27.5 12t-11.5 28t11.5 27.5t27.5 11.5t27.5 -11.5t11.5 -27.5t-11.5 -28t-27.5 -12zM396 268h-64q-26 0 -36 -11.5t-10 -37.5v-106q0 -33 15 -41
t45 -8h50v204zM396 0h-55q-54 0 -87 26.5t-33 86.5v106q0 52 29.5 82.5t83.5 30.5h127v-350q0 -41 -18 -70.5t-47 -49.5t-66.5 -29.5t-76.5 -9.5q-36 0 -72.5 9t-66.5 28t-48.5 49.5t-18.5 74.5v166l64 42v-198q0 -28 11.5 -48t31 -33t45.5 -19t55 -6q21 0 45.5 4.5t46 15.5
t36 30t14.5 49v13z" />
    <glyph glyph-name="uni0643" unicode="&#x643;" horiz-adv-x="618" arabic-form="isolated" 
d="M162 0q-55 0 -85.5 29t-30.5 87v97l65 42v-142q0 -24 10 -36.5t36 -12.5h304q46 0 46 44v359h64v-356q0 -48 -27.5 -79.5t-87.5 -31.5h-294zM246 228v27h29q-8 13 -8 26q0 20 13 36.5t39 16.5h29v-27h-19q-33 0 -33 -26q0 -14 9.5 -20t23.5 -6h38v-27h-121z" />
    <glyph glyph-name="uni0644" unicode="&#x644;" horiz-adv-x="507" arabic-form="isolated" 
d="M396 467h65v-485q0 -42 -18.5 -72t-48 -49.5t-67 -28.5t-74.5 -9q-35 0 -72 9t-67 28t-49 49.5t-19 72.5v168l65 42v-203q0 -28 12.5 -47.5t33 -31.5t45.5 -17t51 -5q27 0 53 5.5t46 17.5t32 31t12 46v479z" />
    <glyph glyph-name="uni0645" unicode="&#x645;" horiz-adv-x="433" arabic-form="isolated" 
d="M152 0q-19 0 -30 -11t-11 -33v-97l-65 -36v127q0 48 24.5 79t77.5 35v155q0 54 29.5 83.5t80.5 29.5h128v-221q0 -48 -27.5 -79.5t-87.5 -31.5h-119zM323 268h-65q-20 0 -33.5 -10t-13.5 -39v-155h65q47 0 47 44v160z" />
    <glyph glyph-name="uni0646" unicode="&#x646;" horiz-adv-x="507" arabic-form="isolated" 
d="M258 411q-17 0 -28.5 12t-11.5 28t11.5 27.5t28.5 11.5q16 0 27 -11.5t11 -27.5t-11 -28t-27 -12zM396 332h65v-350q0 -42 -18.5 -72t-48 -49.5t-67 -28.5t-74.5 -9q-35 0 -72 9t-67 28t-49 49.5t-19 72.5v168l65 42v-203q0 -28 12.5 -47.5t33 -31.5t45.5 -17t51 -5
q27 0 53 5.5t46 17.5t32 31t12 46v344z" />
    <glyph glyph-name="uni0647" unicode="&#x647;" horiz-adv-x="332" arabic-form="isolated" 
d="M286 113q0 -32 -10.5 -54t-27 -35t-38.5 -18.5t-44 -5.5q-25 0 -47 6.5t-38 20.5t-25.5 36t-9.5 52v104q0 54 30 83.5t81 29.5h129v-219zM221 268h-64q-20 0 -33 -10t-13 -39v-108q0 -29 16 -38.5t39 -9.5t39 9.5t16 38.5v157z" />
    <glyph glyph-name="uni0648" unicode="&#x648;" horiz-adv-x="332" arabic-form="isolated" 
d="M77 -117h10q28 0 52.5 4.5t42.5 16t28.5 30t10.5 46.5v20h-55q-54 0 -87 26.5t-33 86.5v106q0 52 29.5 82.5t83.5 30.5h127v-340q0 -80 -38 -120.5t-128 -46.5zM221 268h-64q-26 0 -36 -11.5t-10 -37.5v-106q0 -33 15 -41t45 -8h50v204z" />
    <glyph glyph-name="uni0649" unicode="&#x649;" horiz-adv-x="507" arabic-form="isolated" 
d="M397 0h-58q-51 0 -84 26.5t-33 86.5v109q0 47 27.5 78.5t85.5 31.5h126v-64h-129q-23 0 -34.5 -10.5t-11.5 -38.5v-106q0 -26 11.5 -37.5t34.5 -11.5h129v-82q0 -41 -18 -70.5t-47 -49.5t-66.5 -29.5t-76.5 -9.5q-36 0 -72.5 9t-66.5 28t-48.5 49.5t-18.5 74.5v166l64 42
v-198q0 -28 11.5 -48t31 -33t45.5 -19t55 -6q21 0 45.5 4.5t46.5 15.5t36.5 30t14.5 49v13z" />
    <glyph glyph-name="uni064A" unicode="&#x64a;" horiz-adv-x="507" arabic-form="isolated" 
d="M246 -288q0 -16 -11 -27.5t-28 -11.5q-16 0 -27 11.5t-11 27.5q0 17 11 28.5t27 11.5q17 0 28 -11.5t11 -28.5zM345 -288q0 -16 -11 -27.5t-28 -11.5q-16 0 -27.5 11.5t-11.5 27.5q0 17 11.5 28.5t27.5 11.5q17 0 28 -11.5t11 -28.5zM397 0h-58q-51 0 -84 26.5t-33 86.5
v109q0 47 27.5 78.5t85.5 31.5h126v-64h-129q-23 0 -34.5 -10.5t-11.5 -38.5v-106q0 -26 11.5 -37.5t34.5 -11.5h129v-82q0 -41 -18 -70.5t-47 -49.5t-66.5 -29.5t-76.5 -9.5q-36 0 -72.5 9t-66.5 28t-48.5 49.5t-18.5 74.5v166l64 42v-198q0 -28 11.5 -48t31 -33t45.5 -19
t55 -6q21 0 45.5 4.5t46.5 15.5t36.5 30t14.5 49v13z" />
    <glyph glyph-name="uni0671" unicode="&#x671;" horiz-adv-x="157" arabic-form="isolated" 
d="M-10 573l23 23q5 5 8 7t8 2q12 0 22.5 -11t16.5 -11t11.5 9l12.5 19.5t16.5 19.5t23.5 9q16 0 26.5 -11.5t10.5 -26.5q0 -13 -6.5 -23.5t-16.5 -18t-22.5 -11.5t-24.5 -4q-14 0 -24.5 4.5t-18.5 10t-13.5 10t-9.5 4.5q-3 0 -5 -2l-4 -4l-14 -14zM101 576q12 -1 25.5 5.5
t13.5 19.5q0 10 -9 10q-8 0 -15 -13.5t-15 -21.5zM46 -36v503h65v-467z" />
    <glyph glyph-name="uni0679" unicode="&#x679;" horiz-adv-x="618" arabic-form="isolated" 
d="M370 484q0 5 -2 10t-9 5q-5 0 -13 -4l-45 -16q-13 -5 -13 -16v-25h70q7 0 9.5 2.5t2.5 10.5v33zM288 411v-17l-26 -14v31h-39l11 27h28v127h26v-62l56 20q9 3 16 3q14 0 25.5 -10.5t11.5 -24.5v-48q0 -17 -11.5 -24.5t-29.5 -7.5h-68zM162 0q-55 0 -85.5 29t-30.5 87v97
l65 42v-142q0 -24 10 -36.5t36 -12.5h304q46 0 46 44v224h64v-221q0 -48 -27.5 -79.5t-87.5 -31.5h-294z" />
    <glyph glyph-name="uni067E" unicode="&#x67e;" horiz-adv-x="618" arabic-form="isolated" 
d="M300 -136q0 -17 -11.5 -28t-27.5 -11q-17 0 -28.5 11t-11.5 28q0 16 11.5 27.5t28.5 11.5q16 0 27.5 -11.5t11.5 -27.5zM398 -136q0 -17 -11.5 -28t-27.5 -11t-27 11t-11 28q0 16 11 27.5t27 11.5t27.5 -11.5t11.5 -27.5zM344 -224q0 -14 -10.5 -24.5t-24.5 -10.5
t-24 10.5t-10 24.5t10 24t24 10t24.5 -9.5t10.5 -24.5zM162 0q-55 0 -85.5 29t-30.5 87v97l65 42v-142q0 -24 10 -36.5t36 -12.5h304q46 0 46 44v224h64v-221q0 -48 -27.5 -79.5t-87.5 -31.5h-294z" />
    <glyph glyph-name="uni0686" unicode="&#x686;" horiz-adv-x="400" arabic-form="isolated" 
d="M328 -143q-11 0 -18.5 7.5t-7.5 18.5t7.5 18.5t18.5 7.5t18 -7.5t7 -18.5t-7 -18.5t-18 -7.5zM292 -117q0 -11 -7.5 -18.5t-18.5 -7.5t-18.5 7.5t-7.5 18.5t7.5 18.5t18.5 7.5t18.5 -7.5t7.5 -18.5zM297 -193q-10 0 -16.5 6.5t-6.5 16.5q0 9 6.5 15.5t16.5 6.5
q9 0 15.5 -6.5t6.5 -15.5q0 -10 -6.5 -16.5t-15.5 -6.5zM146 -175q-51 13 -75.5 44.5t-24.5 73.5q0 26 9.5 48.5t26 38.5t38.5 25t47 9h76q21 0 33.5 10t12.5 39v108q0 27 -11.5 37t-34.5 10h-129v64h126q59 0 86 -31t27 -82v-106q0 -57 -30.5 -85t-81.5 -28h-73
q-22 0 -39.5 -15t-17.5 -40q0 -28 18.5 -42t46.5 -14h13z" />
    <glyph glyph-name="uni0688" unicode="&#x688;" horiz-adv-x="349" arabic-form="isolated" 
d="M46 0v64h146q26 0 36.5 11.5t10.5 33.5v63q0 53 -27 74.5t-67 21.5h-43v64h47q29 0 56.5 -10t49 -29t34.5 -48t13 -66v-73q0 -17 -5 -35.5t-18 -34t-35.5 -26t-56.5 -10.5h-141zM249 484q0 5 -2 10t-9 5q-3 0 -6.5 -1t-6.5 -2l-45 -17q-12 -5 -12 -16v-25h69q7 0 9.5 2.5
t2.5 10.5v33zM168 411v-17l-27 -14v31h-39l11 27h28v128h27v-63l56 21q5 2 16 2q14 0 25 -10.5t11 -24.5v-48q0 -17 -11.5 -24.5t-28.5 -7.5h-68z" />
    <glyph glyph-name="uni0691" unicode="&#x691;" horiz-adv-x="261" arabic-form="isolated" 
d="M187 484q0 5 -2 10t-9 5q-3 0 -6.5 -1t-6.5 -2l-45 -17q-6 -2 -9 -5t-3 -11v-24h69q7 0 9.5 2t2.5 10v33zM106 411v-17l-27 -14v31h-39l11 28h28v127h27v-62l56 20q7 3 16 3q14 0 25 -10.5t11 -25.5v-48q0 -17 -11.5 -24.5t-28.5 -7.5h-68zM70 -118q25 8 40.5 17t24.5 22
t12 30t3 40v341h64v-361q0 -51 -25.5 -88.5t-73.5 -57.5z" />
    <glyph glyph-name="uni0698" unicode="&#x698;" horiz-adv-x="257" arabic-form="isolated" 
d="M162 539q0 -14 -10.5 -24.5t-24.5 -10.5t-24 10.5t-10 24.5t10 24.5t24 10.5t24.5 -10.5t10.5 -24.5zM79 411q-16 0 -27.5 12t-11.5 28t11.5 27.5t27.5 11.5q17 0 28 -11.5t11 -27.5t-11 -28t-28 -12zM178 411q-16 0 -27.5 12t-11.5 28t11.5 27.5t27.5 11.5t27.5 -11.5
t11.5 -27.5t-11.5 -28t-27.5 -12zM66 -118q25 8 40.5 17t24.5 22t12 30t3 40v341h64v-361q0 -51 -25.5 -88.5t-73.5 -57.5z" />
    <glyph glyph-name="uni06A4" unicode="&#x6a4;" horiz-adv-x="618" arabic-form="isolated" 
d="M452 504q-14 0 -24.5 10.5t-10.5 24.5t10.5 24.5t24.5 10.5t24 -10.5t10 -24.5t-10 -24.5t-24 -10.5zM403 411q-16 0 -27 12t-11 28t11 27.5t27 11.5t27.5 -11.5t11.5 -27.5t-11.5 -28t-27.5 -12zM502 411q-16 0 -27.5 12t-11.5 28t11.5 27.5t27.5 11.5q17 0 27.5 -11.5
t11.5 -27.5q0 -16 -11 -28t-28 -12zM162 0q-55 0 -85.5 29t-30.5 87v97l65 42v-142q0 -24 10 -36.5t36 -12.5h175v155q0 54 30 83.5t81 29.5h128v-221q0 -48 -27.5 -79.5t-87.5 -31.5h-294zM507 268h-65q-20 0 -33 -10t-13 -39v-155h65q46 0 46 44v160z" />
    <glyph glyph-name="uni06A9" unicode="&#x6a9;" horiz-adv-x="618" arabic-form="isolated" 
d="M157 0q-30 0 -51 9.5t-34.5 25t-19.5 36t-6 42.5v100l65 42v-142q0 -31 13.5 -40t32.5 -9h304q23 0 34.5 10t11.5 34v113q0 47 -46 47h-166v85q0 62 33 88t86 26h111v-65h-120q-20 0 -33.5 -8.5t-13.5 -37.5v-24h102q52 0 81.5 -28.5t29.5 -84.5v-109q0 -51 -30 -80.5
t-83 -29.5h-301z" />
    <glyph glyph-name="uni06AF" unicode="&#x6af;" horiz-adv-x="618" arabic-form="isolated" 
d="M399 545q-18 0 -31.5 -1.5t-25 -6t-23 -12t-24.5 -18.5v68q11 10 21.5 17t22.5 10.5t28 5t38 1.5h120v-64h-126zM157 0q-30 0 -51 9.5t-34.5 25t-19.5 36t-6 42.5v100l65 42v-142q0 -31 13.5 -40t32.5 -9h304q23 0 34.5 10t11.5 34v113q0 47 -46 47h-166v85q0 62 33 88
t86 26h111v-65h-120q-20 0 -33.5 -8.5t-13.5 -37.5v-24h102q52 0 81.5 -28.5t29.5 -84.5v-109q0 -51 -30 -80.5t-83 -29.5h-301z" />
    <glyph glyph-name="uni06BA" unicode="&#x6ba;" horiz-adv-x="507" arabic-form="isolated" 
d="M396 332h65v-350q0 -42 -18.5 -72t-48 -49.5t-67 -28.5t-74.5 -9q-35 0 -72 9t-67 28t-49 49.5t-19 72.5v168l65 42v-203q0 -28 12.5 -47.5t33 -31.5t45.5 -17t51 -5q27 0 53 5.5t46 17.5t32 31t12 46v344z" />
    <glyph glyph-name="uni06BE" unicode="&#x6be;" horiz-adv-x="433" arabic-form="isolated" 
d="M161 64q17 0 29 12.5t12 29.5t-12 29t-29 12t-29 -12.5t-12 -29.5t12 -29t29 -12zM188 0q-15 0 -27 8q-11 -8 -27 -8h-134v64h76q-4 10 -6.5 20.5t-2.5 21.5q0 38 27 66t68 28q42 0 67.5 -28.5t25.5 -65.5q0 -23 -9 -42h29q21 0 34 10t13 39v109q0 25 -11 35.5t-33 10.5
h-211v64h202q59 0 88 -31t29 -78v-110q0 -59 -32.5 -86t-82.5 -27h-83z" />
    <glyph glyph-name="uni06C0" unicode="&#x6c0;" horiz-adv-x="332" arabic-form="isolated" 
d="M286 113q0 -32 -10.5 -54t-27 -35t-38.5 -18.5t-44 -5.5q-25 0 -47 6.5t-38 20.5t-25.5 36t-9.5 52v104q0 54 30 83.5t81 29.5h129v-219zM221 268h-64q-20 0 -33 -10t-13 -39v-99q0 -29 16 -43t39 -14t39 14t16 43v148zM105 411v26h29q-8 14 -8 27q0 20 13 36t39 16h28
v-26h-18q-33 0 -33 -26q0 -14 9.5 -20.5t23.5 -6.5h38v-26h-121z" />
    <glyph glyph-name="uni06C1" unicode="&#x6c1;" horiz-adv-x="332" arabic-form="isolated" 
d="M286 113q0 -32 -10.5 -54t-27 -35t-38.5 -18.5t-44 -5.5q-25 0 -47 6.5t-38 20.5t-25.5 36t-9.5 52v104q0 54 30 83.5t81 29.5h129v-219zM221 268h-64q-20 0 -33 -10t-13 -39v-99q0 -29 16 -43t39 -14t39 14t16 43v148z" />
    <glyph glyph-name="uni06CC" unicode="&#x6cc;" horiz-adv-x="506" arabic-form="isolated" 
d="M397 0h-58q-51 0 -84 26.5t-33 86.5v109q0 47 27.5 78.5t85.5 31.5h125v-64h-128q-23 0 -34.5 -10.5t-11.5 -38.5v-106q0 -26 11.5 -37.5t34.5 -11.5h128v-82q0 -41 -17.5 -70.5t-47 -49.5t-66.5 -29.5t-76 -9.5q-36 0 -72.5 9t-66.5 28t-48.5 49.5t-18.5 74.5v166l63 42
v-198q0 -28 11.5 -48t31 -33t45.5 -19t56 -6q21 0 45.5 4.5t46 15.5t36.5 30t15 49v13z" />
    <glyph glyph-name="uni06D2" unicode="&#x6d2;" horiz-adv-x="713" arabic-form="isolated" 
d="M165 0q-60 0 -89.5 29.5t-29.5 83.5v106q0 54 29.5 83.5t89.5 29.5h188v22q0 60 33.5 87t86.5 27q61 0 90.5 -31.5t29.5 -82.5v-27h-65v33q0 24 -14.5 34t-40.5 10q-30 0 -42.5 -10.5t-12.5 -33.5v-92h-261q-20 0 -33 -10.5t-13 -38.5v-106q0 -31 13.5 -40t32.5 -9h509
l-40 -64h-461z" />
    <glyph glyph-name="uni06D3" unicode="&#x6d3;" horiz-adv-x="713" arabic-form="isolated" 
d="M165 0q-60 0 -89.5 29.5t-29.5 83.5v106q0 54 29.5 83.5t89.5 29.5h188v22q0 60 33.5 87t86.5 27q61 0 90.5 -31.5t29.5 -82.5v-27h-65v33q0 24 -14.5 34t-40.5 10q-30 0 -42.5 -10.5t-12.5 -33.5v-92h-261q-20 0 -33 -10.5t-13 -38.5v-106q0 -31 13.5 -40t32.5 -9h509
l-40 -64h-461zM144 411v26h29q-8 14 -8 27q0 20 13 36t39 16h29v-26h-19q-33 0 -33 -26q0 -14 9.5 -20.5t23.5 -6.5h38v-26h-121z" />
    <glyph glyph-name="uniFB51" unicode="&#x671;" horiz-adv-x="146" arabic-form="final" 
d="M-10 573l23 23q5 5 8 7t8 2q12 0 22.5 -11t16.5 -11t11.5 9l12.5 19.5t16.5 19.5t23.5 9q16 0 26.5 -11.5t10.5 -26.5q0 -13 -6.5 -23.5t-16.5 -18t-22.5 -11.5t-24.5 -4q-14 0 -24.5 4.5t-18.5 10t-13.5 10t-9.5 4.5q-3 0 -5 -2l-4 -4l-14 -14zM101 576q12 -1 25.5 5.5
t13.5 19.5q0 10 -9 10q-8 0 -15 -13.5t-15 -21.5zM146 0q-42 0 -71 28t-29 74v365h65v-362q0 -12 6.5 -26.5t28.5 -14.5h4v-64h-4z" />
    <glyph glyph-name="uniFB57" unicode="&#x67e;" horiz-adv-x="607" arabic-form="final" 
d="M162 0q-55 0 -85.5 29t-30.5 87v97l65 42v-142q0 -24 10 -36.5t36 -12.5h350v268h64v-268h41v-64h-450zM300 -136q0 -17 -11.5 -28t-27.5 -11q-17 0 -28.5 11t-11.5 28q0 16 11.5 27.5t28.5 11.5q16 0 27.5 -11.5t11.5 -27.5zM398 -136q0 -17 -11.5 -28t-27.5 -11t-27 11
t-11 28q0 16 11 27.5t27 11.5t27.5 -11.5t11.5 -27.5zM344 -224q0 -14 -10.5 -24.5t-24.5 -10.5t-24.5 10.5t-10.5 24.5t10.5 24t24.5 10t24.5 -10t10.5 -24z" />
    <glyph glyph-name="uniFB58" unicode="&#x67e;" horiz-adv-x="235" arabic-form="initial" 
d="M0 0v64h78q47 0 47 44v224h64v-221q0 -30 -9.5 -51t-25 -34.5t-36.5 -19.5t-45 -6h-73zM97 -136q0 -17 -11.5 -28t-27.5 -11q-17 0 -28 11t-11 28q0 16 11 27.5t28 11.5q16 0 27.5 -11.5t11.5 -27.5zM157 -175q-17 0 -28 11t-11 28q0 16 11 27.5t28 11.5q16 0 27 -11.5
t11 -27.5q0 -17 -11 -28t-27 -11zM141 -224q0 -14 -10.5 -24.5t-24.5 -10.5t-24 10.5t-10 24.5t10 24t24 10t24.5 -10t10.5 -24z" />
    <glyph glyph-name="uniFB59" unicode="&#x67e;" horiz-adv-x="224" arabic-form="medial" 
d="M97 -136q0 -17 -11.5 -28t-27.5 -11q-17 0 -28 11t-11 28q0 16 11 27.5t28 11.5q16 0 27.5 -11.5t11.5 -27.5zM157 -175q-17 0 -28 11t-11 28q0 16 11 27.5t28 11.5q16 0 27 -11.5t11 -27.5q0 -17 -11 -28t-27 -11zM0 0v64h125v268h64v-268h40v-64h-229zM141 -224
q0 -14 -10.5 -24.5t-24.5 -10.5t-24 10.5t-10 24.5t10 24t24 10t24.5 -10t10.5 -24z" />
    <glyph glyph-name="uniFB67" unicode="&#x679;" horiz-adv-x="607" arabic-form="final" 
d="M162 0q-55 0 -85.5 29t-30.5 87v97l65 42v-142q0 -24 10 -36.5t36 -12.5h350v268h64v-268h41v-64h-450zM370 484q0 5 -2 10t-9 5q-5 0 -13 -4l-45 -16q-13 -5 -13 -16v-25h70q7 0 9.5 2.5t2.5 10.5v33zM288 411v-17l-26 -14v31h-39l11 27h28v127h26v-62l56 20q9 3 16 3
q14 0 25.5 -10.5t11.5 -24.5v-48q0 -17 -11.5 -24.5t-29.5 -7.5h-68z" />
    <glyph glyph-name="uniFB68" unicode="&#x679;" horiz-adv-x="235" arabic-form="initial" 
d="M162 484q0 5 -2 10t-9 5q-3 0 -6.5 -1t-6.5 -2l-45 -17q-6 -2 -9.5 -5t-3.5 -11v-25h70q7 0 9.5 2.5t2.5 10.5v33zM80 411v-17l-26 -14v31h-39l11 27h28v128h26v-63l56 21q5 2 8.5 2h8.5q14 0 25 -10.5t11 -24.5v-48q0 -17 -11.5 -24.5t-29.5 -7.5h-68zM0 0v64h78
q47 0 47 44v224h64v-221q0 -30 -9.5 -51t-25 -34.5t-36.5 -19.5t-45 -6h-73z" />
    <glyph glyph-name="uniFB69" unicode="&#x679;" horiz-adv-x="224" arabic-form="medial" 
d="M0 0v64h125v268h64v-268h40v-64h-229zM162 484q0 5 -2 10t-9 5q-3 0 -6.5 -1t-6.5 -2l-45 -17q-6 -2 -9.5 -5t-3.5 -11v-25h70q7 0 9.5 2.5t2.5 10.5v33zM80 411v-17l-26 -14v31h-39l11 27h28v128h26v-63l56 21q5 2 8.5 2h8.5q14 0 25 -10.5t11 -24.5v-48
q0 -17 -11.5 -24.5t-29.5 -7.5h-68z" />
    <glyph glyph-name="uniFB6B" unicode="&#x6a4;" horiz-adv-x="607" arabic-form="final" 
d="M162 0q-55 0 -85.5 29t-30.5 87v97l65 42v-142q0 -24 10 -36.5t36 -12.5h175v155q0 54 30 83.5t81 29.5h128v-268h41v-64h-450zM452 504q-14 0 -24.5 10.5t-10.5 24.5t10.5 24.5t24.5 10.5t24 -10.5t10 -24.5t-10 -24.5t-24 -10.5zM403 411q-16 0 -27 12t-11 28t11 27.5
t27 11.5t27.5 -11.5t11.5 -27.5t-11.5 -28t-27.5 -12zM502 411q-16 0 -27.5 12t-11.5 28t11.5 27.5t27.5 11.5q17 0 27.5 -11.5t11.5 -27.5q0 -16 -11 -28t-28 -12zM507 268h-65q-20 0 -33 -10t-13 -39v-155h111v204z" />
    <glyph glyph-name="uniFB6C" unicode="&#x6a4;" horiz-adv-x="360" arabic-form="initial" 
d="M146 411q-17 0 -28.5 12t-11.5 28t11.5 27.5t28.5 11.5q16 0 27 -11.5t11 -27.5t-11 -28t-27 -12zM244 411q-16 0 -28 12t-12 28t12 27.5t28 11.5t27.5 -11.5t11.5 -27.5t-11.5 -28t-27.5 -12zM228 539q0 -14 -10 -24.5t-25 -10.5q-14 0 -24 10.5t-10 24.5t10 24.5
t24 10.5q15 0 25 -10.5t10 -24.5zM0 0v64h74v155q0 54 30 83.5t81 29.5h129v-219q0 -30 -9 -51t-24.5 -35t-36 -20.5t-42.5 -6.5h-202zM249 268h-64q-20 0 -33 -10t-13 -39v-155h55q25 0 40 9t15 38v157z" />
    <glyph glyph-name="uniFB6D" unicode="&#x6a4;" horiz-adv-x="349" arabic-form="medial" 
d="M0 0v64h74v155q0 54 30 83.5t81 29.5h129v-268h39v-64h-353zM146 411q-17 0 -28.5 12t-11.5 28t11.5 27.5t28.5 11.5q16 0 27 -11.5t11 -27.5t-11 -28t-27 -12zM244 411q-16 0 -28 12t-12 28t12 27.5t28 11.5t27.5 -11.5t11.5 -27.5t-11.5 -28t-27.5 -12zM228 539
q0 -14 -10 -24.5t-25 -10.5q-14 0 -24 10.5t-10 24.5t10 24.5t24 10.5q15 0 25 -10.5t10 -24.5zM249 268h-64q-20 0 -33 -10t-13 -39v-155h110v204z" />
    <glyph glyph-name="uniFB7B" unicode="&#x686;" horiz-adv-x="377" arabic-form="final" 
d="M168 0q-22 0 -39.5 -15t-17.5 -40q0 -28 18.5 -42t46.5 -14h13l-43 -64q-51 13 -75.5 44.5t-24.5 73.5q0 26 9.5 48.5t26 38.5t38.5 25t47 9h122v157q0 27 -11.5 37t-34.5 10h-129v64h126q57 0 85 -31t28 -79v-158h28v-64h-213zM328 -143q-11 0 -18.5 7.5t-7.5 18.5
t7.5 18.5t18.5 7.5t18 -7.5t7 -18.5t-7 -18.5t-18 -7.5zM291 -117q0 -11 -7.5 -18.5t-18.5 -7.5q-10 0 -17.5 7.5t-7.5 18.5t7.5 18.5t17.5 7.5q11 0 18.5 -7.5t7.5 -18.5zM319 -170q0 -10 -6.5 -16.5t-16.5 -6.5q-9 0 -15.5 6.5t-6.5 16.5q0 9 6.5 15.5t15.5 6.5
q10 0 16.5 -6.5t6.5 -15.5z" />
    <glyph glyph-name="uniFB7C" unicode="&#x686;" horiz-adv-x="325" arabic-form="initial" 
d="M122 -136q0 -17 -11.5 -28t-27.5 -11t-27.5 11t-11.5 28q0 16 11.5 27.5t27.5 11.5t27.5 -11.5t11.5 -27.5zM182 -175q-17 0 -28 11t-11 28q0 16 11 27.5t28 11.5q16 0 27 -11.5t11 -27.5q0 -17 -11 -28t-27 -11zM167 -224q0 -14 -10.5 -24.5t-24.5 -10.5t-24.5 10.5
t-10.5 24.5t10.5 24t24.5 10t24.5 -10t10.5 -24zM0 0v64h168q21 0 33.5 10t12.5 39v108q0 27 -11.5 37t-34.5 10h-129v64h126q59 0 86 -31t27 -82v-106q0 -57 -30.5 -85t-81.5 -28h-166z" />
    <glyph glyph-name="uniFB7D" unicode="&#x686;" horiz-adv-x="349" arabic-form="medial" 
d="M159 -136q0 -17 -11.5 -28t-28.5 -11q-15 0 -27 11t-12 28q0 16 11.5 27.5t27.5 11.5q17 0 28 -11.5t12 -27.5zM257 -136q0 -17 -11.5 -28t-27.5 -11t-28 11t-12 28q0 16 12 27.5t28 11.5t27.5 -11.5t11.5 -27.5zM203 -224q0 -14 -10.5 -24.5t-24.5 -10.5t-24.5 10.5
t-10.5 24.5t10.5 24t24.5 10t24.5 -10t10.5 -24zM0 0v64h251v157q0 27 -12 37t-35 10h-128v64h126q57 0 84.5 -31t27.5 -79v-158h40v-64h-354z" />
    <glyph glyph-name="uniFB89" unicode="&#x688;" horiz-adv-x="337" arabic-form="final" 
d="M46 0v64h193v108q0 53 -27 74.5t-67 21.5h-43v64h47q29 0 56.5 -10t49 -29t34.5 -48t13 -66v-115h40v-64h-296zM250 484q0 5 -2 10t-9 5q-3 0 -6.5 -1t-6.5 -2l-45 -17q-12 -5 -12 -16v-25h69q7 0 9.5 2.5t2.5 10.5v33zM169 411v-17l-27 -14v31h-39l11 27h28v128h27v-63
l56 21q5 2 16 2q14 0 25 -10.5t11 -24.5v-48q0 -17 -11.5 -24.5t-28.5 -7.5h-68z" />
    <glyph glyph-name="uniFB8B" unicode="&#x698;" horiz-adv-x="246" arabic-form="final" 
d="M162 539q0 -14 -10.5 -24.5t-24.5 -10.5t-24 10.5t-10 24.5t10 24.5t24 10.5t24.5 -10.5t10.5 -24.5zM79 411q-16 0 -27.5 12t-11.5 28t11.5 27.5t27.5 11.5q17 0 28 -11.5t11 -27.5t-11 -28t-28 -12zM178 411q-16 0 -27.5 12t-11.5 28t11.5 27.5t27.5 11.5t27.5 -11.5
t11.5 -27.5t-11.5 -28t-27.5 -12zM66 -118q25 8 40.5 17t24.5 22t12 30t3 40v341h64v-268h40v-64h-40v-29q0 -51 -25.5 -88.5t-73.5 -57.5z" />
    <glyph glyph-name="uniFB8D" unicode="&#x691;" horiz-adv-x="249" arabic-form="final" 
d="M71 -118q25 8 40.5 17t24.5 22t12 30t3 40v341h64v-268h40v-64h-40v-29q0 -51 -25.5 -88.5t-74.5 -57.5zM188 484q0 5 -2 10t-9 5q-3 0 -6.5 -1t-6.5 -2l-45 -17q-6 -2 -9 -5t-3 -11v-24h69q7 0 9.5 2t2.5 10v33zM107 411v-17l-27 -14v31h-39l11 28h28v127h27v-62l56 20
q7 3 16 3q14 0 25 -10.5t11 -25.5v-48q0 -17 -11.5 -24.5t-28.5 -7.5h-68z" />
    <glyph glyph-name="uniFB8F" unicode="&#x6a9;" horiz-adv-x="607" arabic-form="final" 
d="M157 0q-30 0 -51 9.5t-34.5 25t-19.5 36t-6 42.5v100l65 42v-142q0 -31 13.5 -40t32.5 -9h350v157q0 47 -46 47h-166v85q0 62 33 88t86 26h111v-65h-120q-20 0 -33.5 -8.5t-13.5 -37.5v-24h102q52 0 81.5 -28.5t29.5 -84.5v-155h41v-64h-455z" />
    <glyph glyph-name="uniFB90" unicode="&#x6a9;" horiz-adv-x="400" arabic-form="initial" 
d="M0 0v64h244q23 0 34.5 10t11.5 34v113q0 47 -46 47h-167v85q0 62 33 88t86 26h111v-65h-119q-20 0 -33.5 -8.5t-13.5 -37.5v-24h101q52 0 81.5 -28.5t29.5 -84.5v-109q0 -51 -29.5 -80.5t-83.5 -29.5h-240z" />
    <glyph glyph-name="uniFB91" unicode="&#x6a9;" horiz-adv-x="389" arabic-form="medial" 
d="M0 0v64h290v157q0 47 -46 47h-167v85q0 62 33 88t86 26h111v-65h-119q-20 0 -33.5 -8.5t-13.5 -37.5v-24h101q52 0 81.5 -28.5t29.5 -84.5v-155h41v-64h-394z" />
    <glyph glyph-name="uniFB93" unicode="&#x6af;" horiz-adv-x="607" arabic-form="final" 
d="M157 0q-30 0 -51 9.5t-34.5 25t-19.5 36t-6 42.5v100l65 42v-142q0 -31 13.5 -40t32.5 -9h350v157q0 47 -46 47h-166v85q0 62 33 88t86 26h111v-65h-120q-20 0 -33.5 -8.5t-13.5 -37.5v-24h102q52 0 81.5 -28.5t29.5 -84.5v-155h41v-64h-455zM399 545q-18 0 -31.5 -1.5
t-25 -6t-23 -12t-24.5 -18.5v68q11 10 21.5 17t22.5 10.5t28 5t38 1.5h120v-64h-126z" />
    <glyph glyph-name="uniFB94" unicode="&#x6af;" horiz-adv-x="400" arabic-form="initial" 
d="M181 545q-18 0 -31.5 -1.5t-25.5 -6t-23 -12t-25 -18.5v68q11 10 21.5 17t22.5 10.5t28 5t38 1.5h121v-64h-126zM0 0v64h244q23 0 34.5 10t11.5 34v113q0 47 -46 47h-167v85q0 62 33 88t86 26h111v-65h-119q-20 0 -33.5 -8.5t-13.5 -37.5v-24h101q52 0 81.5 -28.5
t29.5 -84.5v-109q0 -51 -29.5 -80.5t-83.5 -29.5h-240z" />
    <glyph glyph-name="uniFB95" unicode="&#x6af;" horiz-adv-x="389" arabic-form="medial" 
d="M181 545q-18 0 -31.5 -1.5t-25.5 -6t-23 -12t-25 -18.5v68q11 10 21.5 17t22.5 10.5t28 5t38 1.5h121v-64h-126zM0 0v64h290v157q0 47 -46 47h-167v85q0 62 33 88t86 26h111v-65h-119q-20 0 -33.5 -8.5t-13.5 -37.5v-24h101q52 0 81.5 -28.5t29.5 -84.5v-155h41v-64h-394
z" />
    <glyph glyph-name="uniFB9F" unicode="&#x6ba;" horiz-adv-x="496" arabic-form="final" 
d="M461 0v-18q0 -42 -18.5 -72t-48 -49.5t-67 -28.5t-74.5 -9q-35 0 -72 9t-67 28t-49 49.5t-19 72.5v168l65 42v-203q0 -28 12.5 -47.5t33 -31.5t45.5 -17t51 -5q27 0 53 5.5t46 17.5t32 31t12 46v344h65v-268h39v-64h-39z" />
    <glyph glyph-name="uniFBA5" unicode="&#x6c0;" horiz-adv-x="321" arabic-form="final" 
d="M221 268h-64q-20 0 -33 -9.5t-13 -37.5v-109q0 -22 9 -35t41 -13h60v204zM221 0v42l-31 -42h-24q-60 0 -90 29.5t-30 83.5v106q0 57 32.5 85t80.5 28h127v-268h39v-64h-104zM105 411v26h29q-8 14 -8 27q0 20 13 36t39 16h28v-26h-18q-33 0 -33 -26q0 -14 9.5 -20.5
t23.5 -6.5h38v-26h-121z" />
    <glyph glyph-name="uniFBA7" unicode="&#x6c1;" horiz-adv-x="552" arabic-form="final" 
d="M552 0q-15 0 -32 6t-32 18.5t-25 32.5t-10 49v158q-51 -5 -80 -28t-42.5 -58.5t-16.5 -81.5t-3 -96q-54 0 -102 8t-84.5 30.5t-58 62t-21.5 102.5q0 29 3 58l65 44q-1 -19 -2 -33.5t-1.5 -26.5l-1 -23.5t-0.5 -23.5q0 -39 12.5 -64t33 -39t45.5 -20.5t49 -7.5
q4 138 68 201.5t183 63.5h18v-225q0 -15 9.5 -29t30.5 -14v-64h-5z" />
    <glyph glyph-name="uniFBA8" unicode="&#x6c1;" horiz-adv-x="318" arabic-form="initial" 
d="M92 -102q-4 -4 -4 -6q0 -7 4.5 -12.5t4.5 -16.5q0 -16 -12 -27t-28 -11t-27.5 11t-11.5 29q0 11 5.5 18.5t12.5 14.5l101 102h-137v64h160q21 0 33.5 9t12.5 36v223h65v-220q0 -50 -19.5 -73t-52.5 -35z" />
    <glyph glyph-name="uniFBA9" unicode="&#x6c1;" horiz-adv-x="358" arabic-form="medial" 
d="M349 0q-20 0 -24 -14.5t-4 -33.5q0 -61 -34 -95t-84 -34q-30 0 -53 10.5t-38.5 28.5t-23 41t-7.5 48q0 29 -6 39t-25 10h-50v64h53q51 0 72 -28.5t21 -69.5q0 -16 2.5 -30t9 -25t17.5 -17.5t28 -6.5q32 0 44.5 23.5t12.5 54.5q0 43 17.5 71t68.5 28h17v-64h-14z" />
    <glyph glyph-name="uniFBAB" unicode="&#x6be;" horiz-adv-x="421" arabic-form="final" 
d="M161 64q17 0 29 12.5t12 29.5t-12 29t-29 12t-29 -12.5t-12 -29.5t12 -29t29 -12zM188 0q-15 0 -27 8q-11 -8 -27 -8h-134v64h76q-4 10 -6.5 20.5t-2.5 21.5q0 38 27 66t68 28q42 0 67.5 -28.5t25.5 -65.5q0 -23 -9 -42h76v158q0 25 -11 35.5t-33 10.5h-211v64h202
q59 0 88 -31t29 -78v-159h40v-64h-238z" />
    <glyph glyph-name="uniFBAC" unicode="&#x6be;" horiz-adv-x="433" arabic-form="initial" 
d="M161 64q17 0 29 12.5t12 29.5t-12 29t-29 12t-29 -12.5t-12 -29.5t12 -29t29 -12zM188 0q-15 0 -27 8q-11 -8 -27 -8h-134v64h76q-4 10 -6.5 20.5t-2.5 21.5q0 38 27 66t68 28q42 0 67.5 -28.5t25.5 -65.5q0 -23 -9 -42h29q21 0 34 10t13 39v109q0 25 -11 35.5t-33 10.5
h-211v64h202q59 0 88 -31t29 -78v-110q0 -59 -32.5 -86t-82.5 -27h-83z" />
    <glyph glyph-name="uniFBAD" unicode="&#x6be;" horiz-adv-x="421" arabic-form="medial" 
d="M161 64q17 0 29 12.5t12 29.5t-12 29t-29 12t-29 -12.5t-12 -29.5t12 -29t29 -12zM188 0q-15 0 -27 8q-11 -8 -27 -8h-134v64h76q-4 10 -6.5 20.5t-2.5 21.5q0 38 27 66t68 28q42 0 67.5 -28.5t25.5 -65.5q0 -23 -9 -42h76v158q0 25 -11 35.5t-33 10.5h-211v64h202
q59 0 88 -31t29 -78v-159h40v-64h-238z" />
    <glyph glyph-name="uniFBAF" unicode="&#x6d2;" horiz-adv-x="705" arabic-form="final" 
d="M169 -175q-29 0 -52 9.5t-38.5 25.5t-24 38t-8.5 47q0 50 32.5 84.5t90.5 34.5h540v-64h-533q-31 0 -49.5 -13t-18.5 -42t18.5 -42.5t49.5 -13.5h489l-43 -64h-453z" />
    <glyph glyph-name="uniFBB1" unicode="&#x6d3;" horiz-adv-x="713" arabic-form="final" 
d="M144 143v26h29q-8 14 -8 27q0 20 13 36t39 16h29v-26h-19q-33 0 -33 -26q0 -14 9.5 -20.5t23.5 -6.5h38v-26h-121zM169 -175q-29 0 -52 9.5t-38.5 25.5t-24 38t-8.5 47q0 50 32.5 84.5t90.5 34.5h540v-64h-533q-31 0 -49.5 -13t-18.5 -42t18.5 -42.5t49.5 -13.5h489
l-43 -64h-453z" />
    <glyph glyph-name="uniFBE8" unicode="&#x649;" horiz-adv-x="229" arabic-form="initial" 
d="M0 0v64h78q47 0 47 44v224h64v-221q0 -30 -9.5 -51t-25 -34.5t-36.5 -19.5t-45 -6h-73z" />
    <glyph glyph-name="uniFBE9" unicode="&#x649;" horiz-adv-x="224" arabic-form="medial" 
d="M0 0v64h125v268h64v-268h40v-64h-229z" />
    <glyph glyph-name="uniFBFD" unicode="&#x6cc;" horiz-adv-x="496" arabic-form="final" 
d="M461 0v-18q0 -41 -18 -70.5t-47 -49.5t-66.5 -29.5t-76.5 -9.5q-36 0 -72.5 9t-66.5 28t-48.5 49.5t-18.5 74.5v166l64 42v-198q0 -28 11.5 -48t31 -33t45.5 -19t55 -6q21 0 45.5 4.5t46 15.5t36 30t14.5 49v13h-75v64h179v-64h-39z" />
    <glyph glyph-name="uniFBFE" unicode="&#x6cc;" horiz-adv-x="235" arabic-form="initial" 
d="M97 -136q0 -17 -11.5 -28t-27.5 -11q-17 0 -28 11t-11 28q0 16 11 27.5t28 11.5q16 0 27.5 -11.5t11.5 -27.5zM157 -175q-17 0 -28 11t-11 28q0 16 11 27.5t28 11.5q16 0 27 -11.5t11 -27.5q0 -17 -11 -28t-27 -11zM0 0v64h78q47 0 47 44v224h64v-221q0 -30 -9.5 -51
t-25 -34.5t-36.5 -19.5t-45 -6h-73z" />
    <glyph glyph-name="uniFBFF" unicode="&#x6cc;" horiz-adv-x="224" arabic-form="medial" 
d="M97 -136q0 -17 -11.5 -28t-27.5 -11q-17 0 -28 11t-11 28q0 16 11 27.5t28 11.5q16 0 27.5 -11.5t11.5 -27.5zM157 -175q-17 0 -28 11t-11 28q0 16 11 27.5t28 11.5q16 0 27 -11.5t11 -27.5q0 -17 -11 -28t-27 -11zM0 0v64h125v268h64v-268h40v-64h-229z" />
    <glyph glyph-name="uniFC5E" unicode="&#xfc5e;" arabic-form="isolated" 
d="M64 545q-40 0 -40 44v65h27v-65q0 -9 2 -13t13 -4h35v82h27v-82h35q6 0 10.5 3.5t4.5 13.5v65h26v-63q0 -18 -8 -32t-31 -14h-101zM184 760l-18 17l-45 -34q-5 -4 -11 -7.5t-13 -3.5q-5 0 -10 3.5t-9 7.5l-30 40l-22 -44l-26 12l15 26q6 11 13 22.5t22 11.5q9 0 16 -5
t12 -12l9 -13q2 -4 7 -9.5t10 -5.5q1 0 7 4l36 26q-10 11 -18.5 24t-8.5 29q0 21 16.5 36t36.5 15q22 0 37.5 -15.5t15.5 -36.5q0 -25 -19 -41l-17 -13l16 -16zM171 812q9 7 17.5 15t8.5 20q0 11 -7.5 17.5t-17.5 6.5q-9 0 -16.5 -7t-7.5 -16q0 -12 8 -20t15 -16z" />
    <glyph glyph-name="uniFC5F" unicode="&#xfc5f;" arabic-form="isolated" 
d="M30 627v27h120v-27h-120zM30 545v27h120v-27h-120zM40 733q-40 0 -40 44v64h27v-64q0 -9 2.5 -13.5t12.5 -4.5h35v82h27v-82h35q14 0 14 18v64h28v-62q0 -18 -8.5 -32t-31.5 -14h-101z" />
    <glyph glyph-name="uniFC60" unicode="&#xfc60;" arabic-form="isolated" 
d="M30 732v27h120v-27h-120zM40 545q-40 0 -40 44v65h27v-65q0 -9 2.5 -13t12.5 -4h35v82h27v-82h35q14 0 14 17v65h28v-63q0 -18 -8.5 -32t-31.5 -14h-101z" />
    <glyph glyph-name="uniFC61" unicode="&#xfc61;" arabic-form="isolated" 
d="M40 545q-40 0 -40 44v65h27v-65q0 -9 2.5 -13t12.5 -4h35v82h27v-82h35q14 0 14 17v65h28v-63q0 -18 -8.5 -32t-31.5 -14h-101zM118 820q12 8 19 16t7 19t-7 18t-17 7q-11 0 -18 -7t-7 -17q0 -15 23 -36zM131 769l-18 16q-23 -16 -47 -29.5t-51 -23.5l-12 23
q24 10 46.5 22.5t44.5 26.5q-11 11 -19 24t-8 29q0 21 16.5 36.5t36.5 15.5q22 0 38 -15.5t16 -37.5q0 -20 -10.5 -31t-25.5 -23l15 -16z" />
    <glyph glyph-name="uniFC62" unicode="&#xfc62;" arabic-form="isolated" 
d="M30 545v27h120v-27h-120zM40 651q-40 0 -40 43v65h27v-64q0 -9 2.5 -13t12.5 -4h35v81h27v-81h35q14 0 14 17v64h28v-62q0 -18 -8.5 -32t-31.5 -14h-101z" />
    <glyph glyph-name="uniFC63" unicode="&#xfc63;" arabic-form="isolated" 
d="M40 545q-40 0 -40 44v65h27v-65q0 -9 2.5 -13t12.5 -4h35v82h27v-82h35q14 0 14 17v65h28v-63q0 -18 -8.5 -32t-31.5 -14h-101zM77 732v145h27v-145h-27z" />
    <glyph glyph-name="uniFE82" unicode="&#x622;" horiz-adv-x="146" arabic-form="final" 
d="M129 557q-4 -4 -9 -8t-12 -4t-15 4.5t-16 9.5l-15 9.5t-11 4.5t-7.5 -2.5t-5.5 -4.5l-19 -19l-19 19l24 24q5 5 10 8t13 3q9 0 17 -4t15.5 -9l13.5 -9t11 -4q7 0 13 7l17 18l19 -19zM146 0q-42 0 -71 28t-29 74v365h65v-362q0 -12 6.5 -26.5t28.5 -14.5h4v-64h-4z" />
    <glyph glyph-name="uniFE84" unicode="&#x623;" horiz-adv-x="146" arabic-form="final" 
d="M18 545v27h29q-8 13 -8 26q0 20 13 36.5t39 16.5h29v-27h-19q-33 0 -33 -26q0 -14 9.5 -20t23.5 -6h38v-27h-121zM146 0q-42 0 -71 28t-29 74v365h65v-362q0 -12 6.5 -26.5t28.5 -14.5h4v-64h-4z" />
    <glyph glyph-name="uniFE86" unicode="&#x624;" horiz-adv-x="321" arabic-form="final" 
d="M105 411v26h29q-8 14 -8 27q0 20 13 36t39 16h28v-26h-18q-33 0 -33 -26q0 -14 9.5 -20.5t23.5 -6.5h38v-26h-121zM221 268h-64q-26 0 -36 -11.5t-10 -37.5v-106q0 -33 15 -41t45 -8h50v204zM286 0v-8q0 -80 -38 -120.5t-128 -46.5l-43 58h10q28 0 52.5 4.5t42.5 16
t28.5 30t10.5 46.5v20h-55q-54 0 -87 26.5t-33 86.5v106q0 52 29.5 82.5t83.5 30.5h127v-268h39v-64h-39z" />
    <glyph glyph-name="uniFE88" unicode="&#x625;" horiz-adv-x="146" arabic-form="final" 
d="M18 -175v27h29q-8 13 -8 26q0 20 13 36.5t39 16.5h29v-27h-19q-33 0 -33 -26q0 -14 9.5 -20t23.5 -6h38v-27h-121zM146 0q-42 0 -71 28t-29 74v365h65v-362q0 -12 6.5 -26.5t28.5 -14.5h4v-64h-4z" />
    <glyph glyph-name="uniFE8A" unicode="&#x626;" horiz-adv-x="496" arabic-form="final" 
d="M461 0v-18q0 -41 -18 -70.5t-47 -49.5t-66.5 -29.5t-76.5 -9.5q-36 0 -72.5 9t-66.5 28t-48.5 49.5t-18.5 74.5v166l64 42v-198q0 -28 11.5 -48t31 -33t45.5 -19t55 -6q21 0 45.5 4.5t46 15.5t36 30t14.5 49v13h-75v64h179v-64h-39zM17 255v27h29q-8 13 -8 26
q0 20 13 36.5t39 16.5h29v-27h-19q-33 0 -33 -26q0 -14 9.5 -20t23.5 -6h39v-27h-122z" />
    <glyph glyph-name="uniFE8B" unicode="&#x626;" horiz-adv-x="235" arabic-form="initial" 
d="M0 0v64h78q47 0 47 44v224h64v-221q0 -30 -9.5 -51t-25 -34.5t-36.5 -19.5t-45 -6h-73zM68 411v26h29q-8 14 -8 27q0 20 13 36t39 16h28v-26h-19q-32 0 -32 -26q0 -14 9 -20.5t23 -6.5h39v-26h-121z" />
    <glyph glyph-name="uniFE8C" unicode="&#x626;" horiz-adv-x="224" arabic-form="medial" 
d="M0 0v64h125v268h64v-268h40v-64h-229zM68 411v26h29q-8 14 -8 27q0 20 13 36t39 16h28v-26h-19q-32 0 -32 -26q0 -14 9 -20.5t23 -6.5h39v-26h-121z" />
    <glyph glyph-name="uniFE8E" unicode="&#x627;" horiz-adv-x="146" arabic-form="final" 
d="M146 0q-42 0 -71 28t-29 74v365h65v-362q0 -12 6.5 -26.5t28.5 -14.5h4v-64h-4z" />
    <glyph glyph-name="uniFE90" unicode="&#x628;" horiz-adv-x="607" arabic-form="final" 
d="M349 -136q0 -17 -11.5 -28t-28.5 -11q-16 0 -27 11t-11 28q0 16 11 27.5t27 11.5q17 0 28.5 -11.5t11.5 -27.5zM162 0q-55 0 -85.5 29t-30.5 87v97l65 42v-142q0 -24 10 -36.5t36 -12.5h350v268h64v-268h41v-64h-450z" />
    <glyph glyph-name="uniFE91" unicode="&#x628;" horiz-adv-x="235" arabic-form="initial" 
d="M189 -136q0 -17 -11.5 -28t-27.5 -11t-27.5 11t-11.5 28q0 16 11.5 27.5t27.5 11.5t27.5 -11.5t11.5 -27.5zM0 0v64h78q47 0 47 44v224h64v-221q0 -30 -9.5 -51t-25 -34.5t-36.5 -19.5t-45 -6h-73z" />
    <glyph glyph-name="uniFE92" unicode="&#x628;" horiz-adv-x="224" arabic-form="medial" 
d="M157 -175q-17 0 -28 11t-11 28q0 16 11 27.5t28 11.5q16 0 27 -11.5t11 -27.5q0 -17 -11 -28t-27 -11zM0 0v64h125v268h64v-268h40v-64h-229z" />
    <glyph glyph-name="uniFE94" unicode="&#x629;" horiz-adv-x="321" arabic-form="final" 
d="M118 411q-17 0 -28.5 12t-11.5 28t11.5 27.5t28.5 11.5q16 0 27.5 -11.5t11.5 -27.5t-11.5 -28t-27.5 -12zM216 411q-16 0 -27.5 12t-11.5 28t11.5 27.5t27.5 11.5t27.5 -11.5t11.5 -27.5t-11.5 -28t-27.5 -12zM221 268h-64q-20 0 -33 -9.5t-13 -37.5v-109q0 -22 9 -35
t41 -13h60v204zM221 0v42l-31 -42h-24q-60 0 -90 29.5t-30 83.5v106q0 57 32.5 85t80.5 28h127v-268h39v-64h-104z" />
    <glyph glyph-name="uniFE96" unicode="&#x62a;" horiz-adv-x="607" arabic-form="final" 
d="M261 411q-17 0 -28.5 12t-11.5 28t11.5 27.5t28.5 11.5q16 0 27.5 -11.5t11.5 -27.5t-11.5 -28t-27.5 -12zM359 411q-16 0 -27 12t-11 28t11 27.5t27 11.5t27.5 -11.5t11.5 -27.5t-11.5 -28t-27.5 -12zM162 0q-55 0 -85.5 29t-30.5 87v97l65 42v-142q0 -24 10 -36.5
t36 -12.5h350v268h64v-268h41v-64h-450z" />
    <glyph glyph-name="uniFE97" unicode="&#x62a;" horiz-adv-x="235" arabic-form="initial" 
d="M58 411q-17 0 -28 12t-11 28t11 27.5t28 11.5q16 0 27.5 -11.5t11.5 -27.5t-11.5 -28t-27.5 -12zM157 411q-17 0 -28 12t-11 28t11 27.5t28 11.5q16 0 27 -11.5t11 -27.5t-11 -28t-27 -12zM0 0v64h78q47 0 47 44v224h64v-221q0 -30 -9.5 -51t-25 -34.5t-36.5 -19.5
t-45 -6h-73z" />
    <glyph glyph-name="uniFE98" unicode="&#x62a;" horiz-adv-x="224" arabic-form="medial" 
d="M58 411q-17 0 -28 12t-11 28t11 27.5t28 11.5q16 0 27.5 -11.5t11.5 -27.5t-11.5 -28t-27.5 -12zM157 411q-17 0 -28 12t-11 28t11 27.5t28 11.5q16 0 27 -11.5t11 -27.5t-11 -28t-27 -12zM0 0v64h125v268h64v-268h40v-64h-229z" />
    <glyph glyph-name="uniFE9A" unicode="&#x62b;" horiz-adv-x="607" arabic-form="final" 
d="M261 411q-17 0 -28.5 12t-11.5 28t11.5 27.5t28.5 11.5q16 0 27.5 -11.5t11.5 -27.5t-11.5 -28t-27.5 -12zM359 411q-16 0 -27 12t-11 28t11 27.5t27 11.5t27.5 -11.5t11.5 -27.5t-11.5 -28t-27.5 -12zM344 539q0 -14 -10.5 -24.5t-24.5 -10.5t-24.5 10.5t-10.5 24.5
t10.5 24.5t24.5 10.5t24.5 -10.5t10.5 -24.5zM162 0q-55 0 -85.5 29t-30.5 87v97l65 42v-142q0 -24 10 -36.5t36 -12.5h350v268h64v-268h41v-64h-450z" />
    <glyph glyph-name="uniFE9B" unicode="&#x62b;" horiz-adv-x="235" arabic-form="initial" 
d="M141 539q0 -14 -10.5 -24.5t-24.5 -10.5t-24 10.5t-10 24.5t10 24.5t24 10.5t24.5 -10.5t10.5 -24.5zM58 411q-17 0 -28 12t-11 28t11 27.5t28 11.5q16 0 27.5 -11.5t11.5 -27.5t-11.5 -28t-27.5 -12zM157 411q-17 0 -28 12t-11 28t11 27.5t28 11.5q16 0 27 -11.5
t11 -27.5t-11 -28t-27 -12zM0 0v64h78q47 0 47 44v224h64v-221q0 -30 -9.5 -51t-25 -34.5t-36.5 -19.5t-45 -6h-73z" />
    <glyph glyph-name="uniFE9C" unicode="&#x62b;" horiz-adv-x="224" arabic-form="medial" 
d="M141 539q0 -14 -10.5 -24.5t-24.5 -10.5t-24.5 10.5t-10.5 24.5t10.5 24.5t24.5 10.5t24.5 -10.5t10.5 -24.5zM58 411q-17 0 -28 12t-11 28t11 27.5t28 11.5q16 0 27.5 -11.5t11.5 -27.5t-11.5 -28t-27.5 -12zM157 411q-17 0 -28 12t-11 28t11 27.5t28 11.5
q16 0 27 -11.5t11 -27.5t-11 -28t-27 -12zM0 0v64h125v268h64v-268h40v-64h-229z" />
    <glyph glyph-name="uniFE9E" unicode="&#x62c;" horiz-adv-x="388" arabic-form="final" 
d="M353 -141q0 -16 -11 -27t-27 -11q-17 0 -28 11t-11 27q0 17 11 28t28 11q16 0 27 -11t11 -28zM168 0q-22 0 -39.5 -15t-17.5 -40q0 -28 18.5 -42t46.5 -14h47l-43 -64h-16q-23 0 -44.5 8.5t-38 24t-26 37.5t-9.5 48t9.5 48.5t26 38.5t38.5 25t47 9h122v157q0 27 -11.5 37
t-34.5 10h-129v64h126q59 0 86 -31t27 -82v-155h40v-64h-225z" />
    <glyph glyph-name="uniFE9F" unicode="&#x62c;" horiz-adv-x="361" arabic-form="initial" 
d="M208 -136q0 -17 -11.5 -28t-27.5 -11t-27.5 11t-11.5 28q0 16 11.5 27.5t27.5 11.5t27.5 -11.5t11.5 -27.5zM0 0v64h204q21 0 34 10t13 39v108q0 27 -12 37t-35 10h-128v64h126q58 0 85 -31t27 -82v-106q0 -57 -30.5 -85t-81.5 -28h-202z" />
    <glyph glyph-name="uniFEA0" unicode="&#x62c;" horiz-adv-x="349" arabic-form="medial" 
d="M169 -175q-17 0 -28.5 11t-11.5 28q0 16 11.5 27.5t28.5 11.5q16 0 27 -11.5t11 -27.5q0 -17 -11 -28t-27 -11zM0 0v64h251v157q0 27 -12 37t-35 10h-128v64h126q57 0 84.5 -31t27.5 -79v-158h40v-64h-354z" />
    <glyph glyph-name="uniFEA2" unicode="&#x62d;" horiz-adv-x="388" arabic-form="final" 
d="M164 -175q-23 0 -44.5 8.5t-38 24t-26 37.5t-9.5 48t9.5 48.5t26 38.5t38.5 25t47 9h122v157q0 27 -11.5 37t-34.5 10h-129v64h126q59 0 86 -31t27 -82v-155h40v-64h-225q-22 0 -39.5 -15t-17.5 -40q0 -28 18.5 -42t46.5 -14h176l-43 -64h-145z" />
    <glyph glyph-name="uniFEA3" unicode="&#x62d;" horiz-adv-x="361" arabic-form="initial" 
d="M0 0v64h204q21 0 34 10t13 39v108q0 27 -12 37t-35 10h-128v64h126q58 0 85 -31t27 -82v-106q0 -57 -30.5 -85t-81.5 -28h-202z" />
    <glyph glyph-name="uniFEA4" unicode="&#x62d;" horiz-adv-x="349" arabic-form="medial" 
d="M0 0v64h251v157q0 27 -12 37t-35 10h-128v64h126q57 0 84.5 -31t27.5 -79v-158h40v-64h-354z" />
    <glyph glyph-name="uniFEA6" unicode="&#x62e;" horiz-adv-x="388" arabic-form="final" 
d="M207 411q-16 0 -27.5 12t-11.5 28t11.5 27.5t27.5 11.5t27.5 -11.5t11.5 -27.5t-11.5 -28t-27.5 -12zM164 -175q-23 0 -44.5 8.5t-38 24t-26 37.5t-9.5 48t9.5 48.5t26 38.5t38.5 25t47 9h122v157q0 27 -11.5 37t-34.5 10h-129v64h126q59 0 86 -31t27 -82v-155h40v-64
h-225q-22 0 -39.5 -15t-17.5 -40q0 -28 18.5 -42t46.5 -14h176l-43 -64h-145z" />
    <glyph glyph-name="uniFEA7" unicode="&#x62e;" horiz-adv-x="361" arabic-form="initial" 
d="M169 411q-16 0 -27.5 12t-11.5 28t11.5 27.5t27.5 11.5t27.5 -11.5t11.5 -27.5t-11.5 -28t-27.5 -12zM0 0v64h204q21 0 34 10t13 39v108q0 27 -12 37t-35 10h-128v64h126q58 0 85 -31t27 -82v-106q0 -57 -30.5 -85t-81.5 -28h-202z" />
    <glyph glyph-name="uniFEA8" unicode="&#x62e;" horiz-adv-x="349" arabic-form="medial" 
d="M169 411q-17 0 -28.5 12t-11.5 28t11.5 27.5t28.5 11.5q16 0 27 -11.5t11 -27.5q1 -16 -10.5 -28t-27.5 -12zM0 0v64h251v157q0 27 -12 37t-35 10h-128v64h126q57 0 84.5 -31t27.5 -79v-158h40v-64h-354z" />
    <glyph glyph-name="uniFEAA" unicode="&#x62f;" horiz-adv-x="337" arabic-form="final" 
d="M46 0v64h193v108q0 53 -27 74.5t-67 21.5h-43v64h47q29 0 56.5 -10t49 -29t34.5 -48t13 -66v-115h40v-64h-296z" />
    <glyph glyph-name="uniFEAC" unicode="&#x630;" horiz-adv-x="337" arabic-form="final" 
d="M141 411q-16 0 -27.5 12t-11.5 28t11.5 27.5t27.5 11.5t27.5 -11.5t11.5 -27.5t-11.5 -28t-27.5 -12zM46 0v64h193v108q0 53 -27 74.5t-67 21.5h-43v64h47q29 0 56.5 -10t49 -29t34.5 -48t13 -66v-115h40v-64h-296z" />
    <glyph glyph-name="uniFEAE" unicode="&#x631;" horiz-adv-x="196" arabic-form="final" 
d="M17 -118q25 8 40.5 17t24.5 22t12 30t3 40v341h64v-268h40v-64h-40v-29q0 -51 -25.5 -88.5t-73.5 -57.5z" />
    <glyph glyph-name="uniFEB0" unicode="&#x632;" horiz-adv-x="196" arabic-form="final" 
d="M129 411q-17 0 -28 12t-11 28t11 27.5t28 11.5q16 0 27 -11.5t11 -27.5t-11 -28t-27 -12zM17 -118q25 8 40.5 17t24.5 22t12 30t3 40v341h64v-268h40v-64h-40v-29q0 -51 -25.5 -88.5t-73.5 -57.5z" />
    <glyph glyph-name="uniFEB2" unicode="&#x633;" horiz-adv-x="846" arabic-form="final" 
d="M461 0v-18q0 -42 -18.5 -72t-48 -49.5t-67 -28.5t-74.5 -9q-35 0 -72 9t-67 28t-49 49.5t-19 72.5v168l65 42v-203q0 -28 12.5 -47.5t33 -31.5t45.5 -17t51 -5q27 0 53 5.5t46.5 17.5t32.5 31t12 46v344h64v-268h111v268h64v-268h111v268h64v-268h39v-64h-389z" />
    <glyph glyph-name="uniFEB3" unicode="&#x633;" horiz-adv-x="649" arabic-form="initial" 
d="M0 0v64h188v268h64v-268h111v268h64v-268h64q22 0 34.5 10t12.5 35v223h64v-220q0 -49 -27.5 -80.5t-87.5 -31.5h-487z" />
    <glyph glyph-name="uniFEB4" unicode="&#x633;" horiz-adv-x="625" arabic-form="medial" 
d="M0 0v64h188v268h63v-268h112v268h64v-268h111v268h64v-268h27v-64h-629z" />
    <glyph glyph-name="uniFEB6" unicode="&#x634;" horiz-adv-x="846" arabic-form="final" 
d="M595 451q0 -16 -11.5 -28t-28.5 -12q-16 0 -27 12t-11 28t11 27.5t27 11.5q17 0 28.5 -11.5t11.5 -27.5zM654 411q-16 0 -27.5 12t-11.5 28t11.5 27.5t27.5 11.5t27.5 -11.5t11.5 -27.5t-11.5 -28t-27.5 -12zM639 539q0 -14 -10.5 -24.5t-24.5 -10.5t-24.5 10.5
t-10.5 24.5t10.5 24.5t24.5 10.5t24.5 -10.5t10.5 -24.5zM461 0v-18q0 -42 -18.5 -72t-48 -49.5t-67 -28.5t-74.5 -9q-35 0 -72 9t-67 28t-49 49.5t-19 72.5v168l65 42v-203q0 -28 12.5 -47.5t33 -31.5t45.5 -17t51 -5q27 0 53 5.5t46.5 17.5t32.5 31t12 46v344h64v-268h111
v268h64v-268h111v268h64v-268h39v-64h-389z" />
    <glyph glyph-name="uniFEB7" unicode="&#x634;" horiz-adv-x="649" arabic-form="initial" 
d="M347 411q-17 0 -28 12t-11 28t11 27.5t28 11.5q16 0 27.5 -11.5t11.5 -27.5t-11.5 -28t-27.5 -12zM445 411q-16 0 -27 12t-11 28t11 27.5t27 11.5q17 0 28 -11.5t11 -27.5t-11 -28t-28 -12zM430 539q0 -14 -10.5 -24.5t-24.5 -10.5t-24 10.5t-10 24.5t10 24.5t24 10.5
t24.5 -10.5t10.5 -24.5zM0 0v64h188v268h64v-268h111v268h64v-268h64q22 0 34.5 10t12.5 35v223h64v-220q0 -49 -27.5 -80.5t-87.5 -31.5h-487z" />
    <glyph glyph-name="uniFEB8" unicode="&#x634;" horiz-adv-x="625" arabic-form="medial" 
d="M428 539q0 -14 -10.5 -24.5t-24.5 -10.5t-24.5 10.5t-10.5 24.5t10.5 24.5t24.5 10.5t24.5 -10.5t10.5 -24.5zM385 450q0 -16 -11.5 -27.5t-27.5 -11.5q-17 0 -28.5 11.5t-11.5 27.5q0 17 11.5 28.5t28.5 11.5q16 0 27.5 -11.5t11.5 -28.5zM484 450q0 -16 -11.5 -27.5
t-27.5 -11.5q-17 0 -28 11.5t-11 27.5q0 17 11 28.5t28 11.5t28 -11.5t11 -28.5zM0 0v64h188v268h63v-268h112v268h64v-268h111v268h64v-268h27v-64h-629z" />
    <glyph glyph-name="uniFEBA" unicode="&#x635;" horiz-adv-x="790" arabic-form="final" 
d="M461 0v-18q0 -42 -18.5 -72t-48 -49.5t-67 -28.5t-74.5 -9q-35 0 -72 9t-67 28t-49 49.5t-19 72.5v168l65 42v-203q0 -28 12.5 -47.5t33 -31.5t45.5 -17t51 -5q27 0 53 5.5t46.5 17.5t32.5 31t12 46v344h64v-57l151 54q19 6 40 6q20 0 38.5 -8t33 -21.5t23 -32t8.5 -39.5
v-170h39v-64h-333zM690 227q0 21 -10 32.5t-27 11.5q-16 0 -33 -7l-122 -44q-11 -4 -18 -7t-11.5 -8t-6 -12t-1.5 -19v-110h229v163z" />
    <glyph glyph-name="uniFEBB" unicode="&#x635;" horiz-adv-x="480" arabic-form="initial" 
d="M139 0v-28l-64 -34v62h-75v64h76v268h63v-57l152 54q19 6 39 6t38.5 -8t33 -21.5t23 -32t8.5 -39.5v-128q0 -16 -5 -34.5t-17.5 -34.5t-34.5 -26.5t-55 -10.5h-182zM369 227q0 21 -10 32.5t-27 11.5q-16 0 -33 -7l-123 -44q-11 -4 -18 -7t-11 -8t-6 -12t-2 -19v-110h184
q46 0 46 43v120z" />
    <glyph glyph-name="uniFEBC" unicode="&#x635;" horiz-adv-x="468" arabic-form="medial" 
d="M139 0v-28l-64 -34v62h-75v64h76v268h63v-57l152 54q19 6 39 6t38.5 -8t33 -21.5t23 -32t8.5 -39.5v-170h40v-64h-334zM369 227q0 21 -10 32.5t-27 11.5q-16 0 -33 -7l-123 -44q-11 -4 -18 -7t-11 -8t-6 -12t-2 -19v-110h230v163z" />
    <glyph glyph-name="uniFEBE" unicode="&#x636;" horiz-adv-x="790" arabic-form="final" 
d="M575 411q-16 0 -27.5 12t-11.5 28t11.5 27.5t27.5 11.5t27.5 -11.5t11.5 -27.5t-11.5 -28t-27.5 -12zM461 0v-18q0 -42 -18.5 -72t-48 -49.5t-67 -28.5t-74.5 -9q-35 0 -72 9t-67 28t-49 49.5t-19 72.5v168l65 42v-203q0 -28 12.5 -47.5t33 -31.5t45.5 -17t51 -5
q27 0 53 5.5t46.5 17.5t32.5 31t12 46v344h64v-57l151 54q19 6 40 6q20 0 38.5 -8t33 -21.5t23 -32t8.5 -39.5v-170h39v-64h-333zM690 227q0 21 -10 32.5t-27 11.5q-16 0 -33 -7l-122 -44q-11 -4 -18 -7t-11.5 -8t-6 -12t-1.5 -19v-110h229v163z" />
    <glyph glyph-name="uniFEBF" unicode="&#x636;" horiz-adv-x="480" arabic-form="initial" 
d="M254 411q-17 0 -28 12t-11 28t11 27.5t28 11.5q16 0 27.5 -11.5t11.5 -27.5t-11.5 -28t-27.5 -12zM139 0v-28l-63 -34v62h-76v64h76v268h63v-57l152 54q19 6 39 6t38.5 -8t33 -21.5t23 -32t8.5 -39.5v-128q0 -16 -5 -34.5t-17.5 -34.5t-34.5 -26.5t-55 -10.5h-182z
M369 227q0 21 -10 32.5t-27 11.5q-16 0 -33 -7l-123 -44q-11 -4 -18 -7t-11 -8t-6 -12t-2 -19v-110h184q46 0 46 43v120z" />
    <glyph glyph-name="uniFEC0" unicode="&#x636;" horiz-adv-x="468" arabic-form="medial" 
d="M254 411q-17 0 -28 12t-11 28t11 27.5t28 11.5q16 0 27.5 -11.5t11.5 -27.5t-11.5 -28t-27.5 -12zM139 0v-28l-63 -34v62h-76v64h76v268h63v-57l152 54q19 6 39 6t38.5 -8t33 -21.5t23 -32t8.5 -39.5v-170h40v-64h-334zM369 227q0 21 -10 32.5t-27 11.5q-16 0 -33 -7
l-123 -44q-11 -4 -18 -7t-11 -8t-6 -12t-2 -19v-110h230v163z" />
    <glyph glyph-name="uniFEC2" unicode="&#x637;" horiz-adv-x="479" arabic-form="final" 
d="M162 0v-28l-64 -34v62h-69l29 64h40v403h64v-192l152 54q18 6 39 6q20 0 38.5 -8t33 -21.5t23 -32t8.5 -39.5v-170h28v-64h-322zM391 227q0 44 -37 44q-16 0 -33 -7l-122 -44q-11 -4 -18 -7t-11.5 -8t-6 -12t-1.5 -19v-110h229v163z" />
    <glyph glyph-name="uniFEC3" unicode="&#x637;" horiz-adv-x="480" arabic-form="initial" 
d="M139 0v-28l-64 -34v62h-75v64h75v403h64v-192l152 54q19 6 39 6t38.5 -8t33 -21.5t23 -32t8.5 -39.5v-128q0 -16 -5 -34.5t-17.5 -34.5t-34.5 -26.5t-55 -10.5h-182zM369 227q0 21 -10 32.5t-27 11.5q-16 0 -33 -7l-123 -44q-11 -4 -18 -7t-11 -8t-6 -12t-2 -19v-110h184
q46 0 46 43v120z" />
    <glyph glyph-name="uniFEC4" unicode="&#x637;" horiz-adv-x="468" arabic-form="medial" 
d="M139 0v-28l-64 -34v62h-75v64h75v403h64v-192l151 54q19 6 40 6q20 0 38.5 -8t33 -21.5t23 -32t8.5 -39.5v-170h40v-64h-334zM368 227q0 21 -10 32.5t-27 11.5q-16 0 -33 -7l-122 -44q-11 -4 -18 -7t-11.5 -8t-6 -12t-1.5 -19v-110h229v163z" />
    <glyph glyph-name="uniFEC6" unicode="&#x638;" horiz-adv-x="538" arabic-form="final" 
d="M363 451q0 -16 -11.5 -28t-28.5 -12q-16 0 -27.5 12t-11.5 28t11.5 27.5t27.5 11.5t28 -11.5t12 -27.5zM209 0v-28l-63 -34v62h-99l29 64h70v403h63v-192l152 54q19 6 39 6t38.5 -8t33 -21.5t23 -32t8.5 -39.5v-170h40v-64h-334zM439 227q0 21 -10 32.5t-27 11.5
q-16 0 -33 -7l-123 -44q-11 -4 -18 -7t-11 -8t-6 -12t-2 -19v-110h230v163z" />
    <glyph glyph-name="uniFEC7" unicode="&#x638;" horiz-adv-x="480" arabic-form="initial" 
d="M293 451q0 -16 -11.5 -28t-28.5 -12q-16 0 -27 12t-11 28t11 27.5t27 11.5q17 0 28.5 -11.5t11.5 -27.5zM139 0v-28l-63 -34v62h-76v64h76v403h63v-192l152 54q19 6 39 6t38.5 -8t33 -21.5t23 -32t8.5 -39.5v-128q0 -16 -5 -34.5t-17.5 -34.5t-34.5 -26.5t-55 -10.5h-182
zM369 227q0 21 -10 32.5t-27 11.5q-16 0 -33 -7l-123 -44q-11 -4 -18 -7t-11 -8t-6 -12t-2 -19v-110h184q46 0 46 43v120z" />
    <glyph glyph-name="uniFEC8" unicode="&#x638;" horiz-adv-x="468" arabic-form="medial" 
d="M293 451q0 -16 -11.5 -28t-28.5 -12q-16 0 -27 12t-11 28t11 27.5t27 11.5q17 0 28.5 -11.5t11.5 -27.5zM139 0v-28l-64 -34v62h-75v64h75v403h64v-192l151 54q19 6 40 6q20 0 38.5 -8t33 -21.5t23 -32t8.5 -39.5v-170h40v-64h-334zM368 227q0 21 -10 32.5t-27 11.5
q-16 0 -33 -7l-122 -44q-11 -4 -18 -7t-11.5 -8t-6 -12t-1.5 -19v-110h229v163z" />
    <glyph glyph-name="uniFECA" unicode="&#x639;" horiz-adv-x="416" arabic-form="final" 
d="M220 98l46.5 51t49.5 47q0 18 -9 32t-23 23.5t-31 15t-33 5.5q-32 0 -61 -20t-34 -56q26 -22 50 -47t45 -51zM174 -175q-58 0 -92.5 33t-34.5 85q0 49 31.5 83t85.5 39q-27 32 -51.5 54.5t-52.5 44.5q-4 42 9 74t36.5 54t53.5 33t61 11t61 -11t53 -32.5t36.5 -54
t10.5 -74.5l-51 -45t-54 -55h145v-64h-145q-28 0 -56 19q-14 -10 -25 -14.5t-27 -4.5q-23 0 -40 -14t-17 -41q0 -23 16 -39.5t41 -16.5h184l-42 -64h-136z" />
    <glyph glyph-name="uniFECB" unicode="&#x639;" horiz-adv-x="408" arabic-form="initial" 
d="M0 0v64h82q-5 13 -6 24t-1 25v109q0 52 29 81t85 29h125v-64h-131q-19 0 -31.5 -10t-12.5 -37v-108q0 -31 14 -40t32 -9h176v-64h-361z" />
    <glyph glyph-name="uniFECC" unicode="&#x639;" horiz-adv-x="432" arabic-form="medial" 
d="M292 0q-17 0 -29 5t-26 14q-14 -9 -27 -14t-29 -5h-181v64h181l-27 29.5l-23.5 23.5t-24.5 22l-30 25q-2 42 10 74t34 54t52 33t64 11q33 0 63 -11.5t52.5 -33t34.5 -53.5t11 -74q-18 -14 -30.5 -25l-24 -22l-23.5 -23.5l-28 -29.5h146v-64h-145zM237 98q21 26 45 51
t50 47q-5 36 -34 56t-61 20q-34 0 -63 -20t-34 -56q27 -22 50.5 -47z" />
    <glyph glyph-name="uniFECE" unicode="&#x63a;" horiz-adv-x="416" arabic-form="final" 
d="M260 451q0 -17 -11.5 -28t-28.5 -11q-16 0 -27 11t-11 28q0 16 11 27t27 11q17 0 28.5 -11t11.5 -27zM220 98l46.5 51t49.5 47q0 18 -9 32t-23 23.5t-31 15t-33 5.5q-32 0 -61 -20t-34 -56q26 -22 50 -47t45 -51zM174 -175q-58 0 -92.5 33t-34.5 85q0 49 31.5 83t85.5 39
q-27 32 -51.5 54.5t-52.5 44.5q-4 42 9 74t36.5 54t53.5 33t61 11t61 -11t53 -32.5t36.5 -54t10.5 -74.5l-51 -45t-54 -55h145v-64h-145q-28 0 -56 19q-14 -10 -25 -14.5t-27 -4.5q-23 0 -40 -14t-17 -41q0 -23 16 -39.5t41 -16.5h184l-42 -64h-136z" />
    <glyph glyph-name="uniFECF" unicode="&#x63a;" horiz-adv-x="408" arabic-form="initial" 
d="M209 411q-16 0 -28 12t-12 28t12 27.5t28 11.5t27.5 -11.5t11.5 -27.5t-11.5 -28t-27.5 -12zM0 0v64h82q-5 13 -6 24t-1 25v109q0 52 29 81t85 29h125v-64h-131q-19 0 -31.5 -10t-12.5 -37v-108q0 -31 14 -40t32 -9h176v-64h-361z" />
    <glyph glyph-name="uniFED0" unicode="&#x63a;" horiz-adv-x="432" arabic-form="medial" 
d="M292 0q-17 0 -29 5t-26 14q-14 -9 -27 -14t-29 -5h-181v64h181l-27 29.5l-23.5 23.5t-24.5 22l-30 25q-2 42 10 74t34 54t52 33t64 11q33 0 63 -11.5t52.5 -33t34.5 -53.5t11 -74l-31 -25t-24.5 -22l-23.5 -23.5l-27 -29.5h146v-64h-145zM237 98q21 26 45 51t50 47
q-5 36 -34 56t-61 20q-34 0 -63 -20t-34 -56q27 -22 50.5 -47zM237 412q-17 0 -28.5 11t-11.5 28q0 16 11.5 27t28.5 11q16 0 27 -11t11 -27q0 -17 -11 -28t-27 -11z" />
    <glyph glyph-name="uniFED2" unicode="&#x641;" horiz-adv-x="607" arabic-form="final" 
d="M453 411q-16 0 -27.5 12t-11.5 28t11.5 27.5t27.5 11.5t27.5 -11.5t11.5 -27.5t-11 -28t-28 -12zM162 0q-55 0 -85.5 29t-30.5 87v97l65 42v-142q0 -24 10 -36.5t36 -12.5h175v155q0 54 30 83.5t81 29.5h128v-268h41v-64h-450zM507 268h-65q-20 0 -33 -10t-13 -39v-155
h111v204z" />
    <glyph glyph-name="uniFED3" unicode="&#x641;" horiz-adv-x="360" arabic-form="initial" 
d="M195 411q-16 0 -28 12t-12 28t12 27.5t28 11.5t27.5 -11.5t11.5 -27.5t-11.5 -28t-27.5 -12zM0 0v64h74v155q0 54 30 83.5t81 29.5h129v-219q0 -30 -9 -51t-24.5 -35t-36 -20.5t-42.5 -6.5h-202zM249 268h-64q-20 0 -33 -10t-13 -39v-155h55q25 0 40 9t15 38v157z" />
    <glyph glyph-name="uniFED4" unicode="&#x641;" horiz-adv-x="349" arabic-form="medial" 
d="M195 411q-16 0 -28 12t-12 28t12 27.5t28 11.5t27.5 -11.5t11.5 -27.5t-11.5 -28t-27.5 -12zM0 0v64h74v155q0 54 30 83.5t81 29.5h129v-268h39v-64h-353zM249 268h-64q-20 0 -33 -10t-13 -39v-155h110v204z" />
    <glyph glyph-name="uniFED6" unicode="&#x642;" horiz-adv-x="496" arabic-form="final" 
d="M292 411q-16 0 -27.5 12t-11.5 28t11.5 27.5t27.5 11.5t27.5 -11.5t11.5 -27.5t-11 -28t-28 -12zM391 411q-16 0 -28 12t-12 28t12 27.5t28 11.5t27.5 -11.5t11.5 -27.5t-11.5 -28t-27.5 -12zM396 268h-64q-26 0 -36 -11.5t-10 -37.5v-106q0 -33 15 -41t45 -8h50v204z
M461 0v-18q0 -41 -18 -70.5t-47 -49.5t-66.5 -29.5t-76.5 -9.5q-36 0 -72.5 9t-66.5 28t-48.5 49.5t-18.5 74.5v166l64 42v-198q0 -28 11.5 -48t31 -33t45.5 -19t55 -6q21 0 45.5 4.5t46 15.5t36 30t14.5 49v13h-55q-54 0 -87 26.5t-33 86.5v106q0 52 29.5 82.5t83.5 30.5
h127v-268h39v-64h-39z" />
    <glyph glyph-name="uniFED7" unicode="&#x642;" horiz-adv-x="360" arabic-form="initial" 
d="M146 411q-17 0 -28.5 12t-11.5 28t11.5 27.5t28.5 11.5q16 0 27 -11.5t11 -27.5t-11 -28t-27 -12zM244 411q-16 0 -28 12t-12 28t12 27.5t28 11.5t27.5 -11.5t11.5 -27.5t-11.5 -28t-27.5 -12zM0 0v64h74v155q0 54 30 83.5t81 29.5h129v-219q0 -30 -9 -51t-24.5 -35
t-36 -20.5t-42.5 -6.5h-202zM249 268h-64q-20 0 -33 -10t-13 -39v-155h55q25 0 40 9t15 38v157z" />
    <glyph glyph-name="uniFED8" unicode="&#x642;" horiz-adv-x="349" arabic-form="medial" 
d="M146 411q-17 0 -28.5 12t-11.5 28t11.5 27.5t28.5 11.5q16 0 27 -11.5t11 -27.5t-11 -28t-27 -12zM244 411q-16 0 -28 12t-12 28t12 27.5t28 11.5t27.5 -11.5t11.5 -27.5t-11.5 -28t-27.5 -12zM0 0v64h74v155q0 54 30 83.5t81 29.5h129v-268h39v-64h-353zM249 268h-64
q-20 0 -33 -10t-13 -39v-155h110v204z" />
    <glyph glyph-name="uniFEDA" unicode="&#x643;" horiz-adv-x="607" arabic-form="final" 
d="M162 0q-55 0 -85.5 29t-30.5 87v97l65 42v-142q0 -24 10 -36.5t36 -12.5h350v403h64v-403h41v-64h-450zM246 228v27h29q-8 13 -8 26q0 20 13 36.5t39 16.5h29v-27h-19q-33 0 -33 -26q0 -14 9.5 -20t23.5 -6h38v-27h-121z" />
    <glyph glyph-name="uniFEDB" unicode="&#x643;" horiz-adv-x="400" arabic-form="initial" 
d="M0 0v64h244q23 0 34.5 10t11.5 34v113q0 47 -46 47h-167v85q0 62 33 88t86 26h111v-65h-119q-20 0 -33.5 -8.5t-13.5 -37.5v-24h101q52 0 81.5 -28.5t29.5 -84.5v-109q0 -51 -29.5 -80.5t-83.5 -29.5h-240z" />
    <glyph glyph-name="uniFEDC" unicode="&#x643;" horiz-adv-x="389" arabic-form="medial" 
d="M0 0v64h290v157q0 47 -46 47h-167v85q0 62 33 88t86 26h111v-65h-119q-20 0 -33.5 -8.5t-13.5 -37.5v-24h101q52 0 81.5 -28.5t29.5 -84.5v-155h41v-64h-394z" />
    <glyph glyph-name="uniFEDE" unicode="&#x644;" horiz-adv-x="496" arabic-form="final" 
d="M461 0v-18q0 -42 -18.5 -72t-48 -49.5t-67 -28.5t-74.5 -9q-35 0 -72 9t-67 28t-49 49.5t-19 72.5v168l65 42v-203q0 -28 12.5 -47.5t33 -31.5t45.5 -17t51 -5q27 0 53 5.5t46 17.5t32 31t12 46v479h65v-403h39v-64h-39z" />
    <glyph glyph-name="uniFEDF" unicode="&#x644;" horiz-adv-x="187" arabic-form="initial" 
d="M0 0v64h25q26 0 38.5 10t12.5 39v354h64v-359q0 -48 -26.5 -78t-86.5 -30h-27z" />
    <glyph glyph-name="uniFEE0" unicode="&#x644;" horiz-adv-x="175" arabic-form="medial" 
d="M0 0v64h76v403h63v-403h40v-64h-179z" />
    <glyph glyph-name="uniFEE2" unicode="&#x645;" horiz-adv-x="421" arabic-form="final" 
d="M152 0q-19 0 -30 -11t-11 -33v-97l-65 -36v127q0 48 24.5 79t77.5 35v155q0 54 29.5 83.5t80.5 29.5h128v-268h40v-64h-274zM323 268h-65q-20 0 -33.5 -10t-13.5 -39v-155h112v204z" />
    <glyph glyph-name="uniFEE3" unicode="&#x645;" horiz-adv-x="361" arabic-form="initial" 
d="M314 29q0 -32 -10 -53.5t-26.5 -34.5t-38 -18.5t-44.5 -5.5q-46 0 -77.5 21.5t-40.5 61.5h-77v64h76v159q0 33 10.5 54.5t27.5 34.5t38 18.5t43 5.5q23 0 44.5 -6.5t38 -20t26.5 -35t10 -51.5v-194zM251 224q0 29 -16 39t-40 10t-40 -10t-16 -39v-195q0 -31 17 -40t39 -9
t39 9t17 40v195z" />
    <glyph glyph-name="uniFEE4" unicode="&#x645;" horiz-adv-x="350" arabic-form="medial" 
d="M311 0q-4 -23 -15.5 -39t-27 -26t-34.5 -14t-39 -4q-46 0 -77.5 21.5t-40.5 61.5h-77v64h76v159q0 33 10.5 54.5t27.5 34.5t38 18.5t43 5.5q23 0 44.5 -6.5t38 -20t26.5 -35t10 -51.5v-159h40v-64h-43zM251 224q0 29 -16 39t-40 10t-40 -10t-16 -39v-195q0 -31 17 -40
t39 -9t39 9t17 40v195z" />
    <glyph glyph-name="uniFEE6" unicode="&#x646;" horiz-adv-x="496" arabic-form="final" 
d="M258 411q-17 0 -28.5 12t-11.5 28t11.5 27.5t28.5 11.5q16 0 27 -11.5t11 -27.5t-11 -28t-27 -12zM461 0v-18q0 -42 -18.5 -72t-48 -49.5t-67 -28.5t-74.5 -9q-35 0 -72 9t-67 28t-49 49.5t-19 72.5v168l65 42v-203q0 -28 12.5 -47.5t33 -31.5t45.5 -17t51 -5
q27 0 53 5.5t46 17.5t32 31t12 46v344h65v-268h39v-64h-39z" />
    <glyph glyph-name="uniFEE7" unicode="&#x646;" horiz-adv-x="235" arabic-form="initial" 
d="M157 411q-17 0 -28 12t-11 28t11 27.5t28 11.5q16 0 27 -11.5t11 -27.5t-11 -28t-27 -12zM0 0v64h78q47 0 47 44v224h64v-221q0 -30 -9.5 -51t-25 -34.5t-36.5 -19.5t-45 -6h-73z" />
    <glyph glyph-name="uniFEE8" unicode="&#x646;" horiz-adv-x="224" arabic-form="medial" 
d="M157 411q-17 0 -28 12t-11 28t11 27.5t28 11.5q16 0 27 -11.5t11 -27.5t-11 -28t-27 -12zM0 0v64h125v268h64v-268h40v-64h-229z" />
    <glyph glyph-name="uniFEEA" unicode="&#x647;" horiz-adv-x="321" arabic-form="final" 
d="M221 268h-64q-20 0 -33 -9.5t-13 -37.5v-109q0 -22 9 -35t41 -13h60v204zM221 0v42l-31 -42h-24q-60 0 -90 29.5t-30 83.5v106q0 57 32.5 85t80.5 28h127v-268h39v-64h-104z" />
    <glyph glyph-name="uniFEEB" unicode="&#x647;" horiz-adv-x="433" arabic-form="initial" 
d="M161 64q17 0 29 12.5t12 29.5t-12 29t-29 12t-29 -12.5t-12 -29.5t12 -29t29 -12zM188 0q-15 0 -27 8q-11 -8 -27 -8h-134v64h76q-4 10 -6.5 20.5t-2.5 21.5q0 38 27 66t68 28q42 0 67.5 -28.5t25.5 -65.5q0 -23 -9 -42h29q21 0 34 10t13 39v109q0 25 -11 35.5t-33 10.5
h-211v64h202q59 0 88 -31t29 -78v-110q0 -59 -32.5 -86t-82.5 -27h-83z" />
    <glyph glyph-name="uniFEEC" unicode="&#x647;" horiz-adv-x="421" arabic-form="medial" 
d="M161 64q17 0 29 12.5t12 29.5t-12 29t-29 12t-29 -12.5t-12 -29.5t12 -29t29 -12zM188 0q-15 0 -27 8q-11 -8 -27 -8h-134v64h76q-4 10 -6.5 20.5t-2.5 21.5q0 38 27 66t68 28q42 0 67.5 -28.5t25.5 -65.5q0 -23 -9 -42h76v158q0 25 -11 35.5t-33 10.5h-211v64h202
q59 0 88 -31t29 -78v-159h40v-64h-238z" />
    <glyph glyph-name="uniFEEE" unicode="&#x648;" horiz-adv-x="321" arabic-form="final" 
d="M221 268h-64q-26 0 -36 -11.5t-10 -37.5v-106q0 -33 15 -41t45 -8h50v204zM286 0v-8q0 -80 -38 -120.5t-128 -46.5l-43 58h10q28 0 52.5 4.5t42.5 16t28.5 30t10.5 46.5v20h-55q-54 0 -87 26.5t-33 86.5v106q0 52 29.5 82.5t83.5 30.5h127v-268h39v-64h-39z" />
    <glyph glyph-name="uniFEF0" unicode="&#x649;" horiz-adv-x="496" arabic-form="final" 
d="M461 0v-18q0 -41 -18 -70.5t-47 -49.5t-66.5 -29.5t-76.5 -9.5q-36 0 -72.5 9t-66.5 28t-48.5 49.5t-18.5 74.5v166l64 42v-198q0 -28 11.5 -48t31 -33t45.5 -19t55 -6q21 0 45.5 4.5t46 15.5t36 30t14.5 49v13h-75v64h179v-64h-39z" />
    <glyph glyph-name="uniFEF2" unicode="&#x64a;" horiz-adv-x="496" arabic-form="final" 
d="M246 -288q0 -16 -11 -27.5t-28 -11.5q-16 0 -27 11.5t-11 27.5q0 17 11 28.5t27 11.5q17 0 28 -11.5t11 -28.5zM345 -288q0 -16 -11 -27.5t-28 -11.5q-16 0 -27.5 11.5t-11.5 27.5q0 17 11.5 28.5t27.5 11.5q17 0 28 -11.5t11 -28.5zM461 0v-18q0 -41 -18 -70.5
t-47 -49.5t-66.5 -29.5t-76.5 -9.5q-36 0 -72.5 9t-66.5 28t-48.5 49.5t-18.5 74.5v166l64 42v-198q0 -28 11.5 -48t31 -33t45.5 -19t55 -6q21 0 45.5 4.5t46 15.5t36 30t14.5 49v13h-75v64h179v-64h-39z" />
    <glyph glyph-name="uniFEF3" unicode="&#x64a;" horiz-adv-x="235" arabic-form="initial" 
d="M97 -136q0 -17 -11.5 -28t-27.5 -11q-17 0 -28 11t-11 28q0 16 11 27.5t28 11.5q16 0 27.5 -11.5t11.5 -27.5zM157 -175q-17 0 -28 11t-11 28q0 16 11 27.5t28 11.5q16 0 27 -11.5t11 -27.5q0 -17 -11 -28t-27 -11zM0 0v64h78q47 0 47 44v224h64v-221q0 -30 -9.5 -51
t-25 -34.5t-36.5 -19.5t-45 -6h-73z" />
    <glyph glyph-name="uniFEF4" unicode="&#x64a;" horiz-adv-x="224" arabic-form="medial" 
d="M97 -136q0 -17 -11.5 -28t-27.5 -11q-17 0 -28 11t-11 28q0 16 11 27.5t28 11.5q16 0 27.5 -11.5t11.5 -27.5zM157 -175q-17 0 -28 11t-11 28q0 16 11 27.5t28 11.5q16 0 27 -11.5t11 -27.5q0 -17 -11 -28t-27 -11zM0 0v64h125v268h64v-268h40v-64h-229z" />
    <glyph glyph-name=".notdef" horiz-adv-x="500" 
d="M12 665h475v-665h-475v665zM250 375l161 243h-323zM60 91l161 242l-161 242v-484zM278 333l162 -243v485zM250 290l-162 -242h323z" />
    <glyph glyph-name="glyph1" 
 />
    <glyph glyph-name="glyph2" horiz-adv-x="126" 
 />
    <glyph glyph-name="space" unicode=" " horiz-adv-x="126" 
 />
    <glyph glyph-name="exclam" unicode="!" horiz-adv-x="176" 
d="M59 122l-9 345h77l-9 -345h-59zM131 34q0 -18 -13 -29.5t-30 -11.5t-30 11.5t-13 29.5t13 31t30 13t30 -13t13 -31z" />
    <glyph glyph-name="quotedbl" unicode="&#x22;" horiz-adv-x="236" 
d="M147 325l-11 142h68l-11 -142h-46zM44 325l-12 142h70l-12 -142h-46z" />
    <glyph glyph-name="numbersign" unicode="#" horiz-adv-x="459" 
d="M232 0l28 126h-108l-27 -126h-54l28 126h-70l10 45h70l28 124h-70l9 46h70l28 126h54l-28 -126h108l28 126h54l-27 -126h67l-11 -46h-67l-27 -124h67l-10 -45h-67l-29 -126h-54zM298 295h-109l-27 -124h108z" />
    <glyph glyph-name="dollar" unicode="$" horiz-adv-x="384" 
d="M173 -63v56q-21 0 -41 4t-37.5 10t-31.5 12.5t-21 11.5l11 63q7 -6 21 -13.5t30.5 -14t34.5 -11.5t34 -6v167q-24 9 -47.5 19.5t-42.5 25.5t-31 36.5t-12 53.5q0 62 37 90t96 33v58h40v-57q32 -1 59.5 -9t50.5 -18l-11 -64q-17 11 -43.5 21t-55.5 12v-147q24 -9 47 -19.5
t41.5 -26t30 -36.5t11.5 -51q0 -64 -36 -99t-94 -43v-58h-40zM173 418q-35 -2 -50 -19.5t-15 -44.5q0 -25 18.5 -40.5t46.5 -27.5v132zM213 52q24 3 43.5 21t19.5 50q0 29 -18 46.5t-45 29.5v-147z" />
    <glyph glyph-name="percent" unicode="%" horiz-adv-x="663" 
d="M514 -6q-25 0 -47.5 6.5t-40 22t-28 41t-10.5 63.5t10.5 64t28 41.5t40 22t47.5 6.5q24 0 46.5 -6.5t40 -22t27.5 -41.5t10 -64t-10 -63.5t-27.5 -41t-40 -22t-46.5 -6.5zM188 0l240 467h43l-240 -467h-43zM150 208q-24 0 -47 6.5t-40 22t-27.5 41t-10.5 63.5t10.5 63.5
t27.5 41.5t40 22.5t47 6.5q25 0 47.5 -6.5t39.5 -22.5t27.5 -41.5t10.5 -63.5t-10.5 -63.5t-27.5 -41t-40 -22t-47 -6.5zM514 31q16 0 30 4t24.5 15t16 29.5t5.5 47.5t-5.5 48t-16 30t-24.5 15t-30 4q-17 0 -31 -4t-24.5 -15t-16 -30t-5.5 -48t5.5 -47.5t16 -29.5t24.5 -15
t31 -4zM150 245q17 0 31 4t24.5 14.5t16 29.5t5.5 48t-5.5 48t-16 29.5t-24.5 14.5t-31 4t-31 -4t-24.5 -14.5t-16 -29.5t-5.5 -48t5.5 -47.5t16 -29.5t24.5 -15t31 -4z" />
    <glyph glyph-name="ampersand" unicode="&#x26;" horiz-adv-x="482" 
d="M439 -2q-10 -3 -22.5 -4t-21.5 -1q-23 0 -43.5 14.5t-38.5 35.5q-19 -21 -52 -35.5t-75 -14.5q-32 0 -59.5 7t-47.5 22.5t-32 39.5t-12 58q0 35 8.5 59t22 40.5t29.5 26.5t30 16q-13 18 -26.5 46t-13.5 62q0 20 7 39t21 33.5t35.5 23.5t50.5 9q38 0 64.5 -6.5t45.5 -14.5
l-11 -60q-43 20 -89 20q-26 0 -41 -9.5t-15 -35.5q0 -20 7.5 -40t26 -45.5t48.5 -60l75 -83.5q15 28 18 59t3 77h122l-10 -57h-55q0 -12 -2 -27.5t-6 -32.5t-10.5 -34.5t-15.5 -32.5q19 -23 31 -31.5t31 -8.5q18 0 33 5zM272 85q-27 28 -58.5 64.5l-57.5 67.5q-6 -2 -15 -7
t-17.5 -15t-14 -26.5t-5.5 -40.5q0 -23 7.5 -38t19.5 -23.5t27.5 -12t30.5 -3.5q26 0 50 11.5t33 22.5z" />
    <glyph glyph-name="quotesingle" unicode="'" horiz-adv-x="134" 
d="M44 325l-12 142h70l-12 -142h-46z" />
    <glyph glyph-name="parenleft" unicode="(" horiz-adv-x="216" 
d="M147 -102q-21 30 -40.5 66.5t-34.5 78.5t-24 89.5t-9 100.5q0 52 9 100t24 90t34.5 78.5t40.5 66.5l53 -29q-25 -37 -43.5 -71.5t-30.5 -71t-18 -76.5t-6 -87t6 -87t18 -76.5t30.5 -71t43.5 -71.5z" />
    <glyph glyph-name="parenright" unicode=")" horiz-adv-x="216" 
d="M16 -73q25 37 43.5 71.5t30.5 71t18 76.5t6 87t-6 87t-18 76.5t-30.5 71t-43.5 71.5l53 29q21 -30 40.5 -66.5t34.5 -78.5t24 -90t9 -100q0 -53 -9 -100.5t-24 -89.5t-34.5 -78.5t-40.5 -66.5z" />
    <glyph glyph-name="asterisk" unicode="*" horiz-adv-x="242" 
d="M133 379l9 -71h-41l12 71l-61 -49l-21 33l73 33l-73 31l21 35l61 -51l-12 72h41l-9 -72l56 50l22 -35l-70 -30l70 -32l-22 -34z" />
    <glyph glyph-name="plus" unicode="+" horiz-adv-x="350" 
d="M147 58v139h-120v56h120v141h56v-141h120v-56h-120v-139h-56z" />
    <glyph glyph-name="comma" unicode="," horiz-adv-x="158" 
d="M21 -66q13 8 28 21t15 27q0 9 -4.5 16t-10 14t-10 14t-4.5 17q0 13 10.5 25t31.5 12q19 0 32 -15.5t13 -44.5q0 -21 -7.5 -38.5t-20 -32t-29 -25.5t-33.5 -19z" />
    <glyph glyph-name="hyphen" unicode="-" horiz-adv-x="281" 
d="M51 152v58h179v-58h-179z" />
    <glyph glyph-name="period" unicode="." horiz-adv-x="158" 
d="M122 36q0 -17 -13.5 -29t-30.5 -12t-29.5 12t-12.5 29q0 18 12.5 31t29.5 13t30.5 -13t13.5 -31z" />
    <glyph glyph-name="slash" unicode="/" horiz-adv-x="346" 
d="M23 -21l237 509h63l-237 -509h-63z" />
    <glyph glyph-name="zero" unicode="0" horiz-adv-x="466" 
d="M233 -7q-38 0 -72.5 12t-61 39.5t-42.5 73.5t-16 115t16 115t42.5 74.5t61 40.5t72.5 12t72.5 -12t61 -40.5t42.5 -74.5t16 -115t-16 -115t-42.5 -73.5t-61.5 -39.5t-72 -12zM233 54q26 0 48 8t38.5 28.5t25.5 55t9 87.5t-9 88t-25.5 55.5t-38.5 29t-48 8.5t-48 -8.5
t-38.5 -29t-25.5 -55.5t-9 -88t9 -87.5t25.5 -54.5t38.5 -28.5t48 -8.5z" />
    <glyph glyph-name="one" unicode="1" horiz-adv-x="237" 
d="M95 0v400l-73 -35v61l81 41h61v-467h-69z" />
    <glyph glyph-name="two" unicode="2" horiz-adv-x="362" 
d="M14 0v45l100 100t72 80t43.5 66t14.5 57q0 32 -22 50t-58 18q-39 0 -70 -10.5t-66 -27.5l12 70q34 15 62.5 21t67.5 6t66.5 -10t45 -27.5t25.5 -40.5t8 -49q0 -35 -16.5 -69.5t-44.5 -70t-65 -73l-77 -76.5h206l-10 -59h-294z" />
    <glyph glyph-name="three" unicode="3" horiz-adv-x="364" 
d="M38 94q22 -16 49.5 -29t68.5 -13q13 0 30 3t32.5 12.5t26 27t10.5 46.5q0 23 -8.5 37.5t-23 23t-34 11.5t-41.5 3h-41v56h41q54 0 75 20t21 55q0 33 -21.5 51t-56.5 18q-46 0 -77.5 -11t-56.5 -25l12 68q15 7 28.5 12t27 8.5t29.5 5t37 1.5q37 0 64.5 -11t46 -29
t27.5 -41t9 -47q0 -25 -6 -42.5t-16 -29.5t-22.5 -19.5t-25.5 -11.5q30 -4 55.5 -29t25.5 -73q0 -35 -12 -62.5t-34 -47t-51.5 -29.5t-65.5 -10q-50 0 -81 10.5t-53 27.5z" />
    <glyph glyph-name="four" unicode="4" horiz-adv-x="400" 
d="M236 0v103h-201l-10 52l204 312h76v-305h73l-11 -59h-62v-103h-69zM236 365l-133 -203h133v203z" />
    <glyph glyph-name="five" unicode="5" horiz-adv-x="371" 
d="M43 94q26 -17 54 -29.5t73 -12.5q16 0 34 4t33 14.5t25 28.5t10 47q0 25 -8.5 43t-22 29t-29.5 16.5t-31 5.5q-43 0 -72.5 -7.5t-63.5 -19.5l14 254h257l-11 -59h-184l-7 -118q24 10 78 10q66 0 107.5 -41t41.5 -110q0 -40 -15 -69t-39 -48.5t-54.5 -29t-61.5 -9.5
q-28 0 -49 3t-37.5 8t-29 12t-24.5 15z" />
    <glyph glyph-name="six" unicode="6" horiz-adv-x="412" 
d="M347 386q-21 11 -50.5 20.5t-64.5 9.5q-36 0 -59.5 -15t-37 -38.5t-18.5 -52.5t-5 -57q17 15 43 27t72 12q29 0 56 -8t48 -25.5t33.5 -45.5t12.5 -68q0 -41 -12.5 -69.5t-34.5 -47.5t-52 -27.5t-65 -8.5q-40 0 -72 12.5t-54 40.5t-34 72t-12 107q0 55 10 101.5t32.5 79.5
t59 51.5t88.5 18.5q40 0 71 -7.5t56 -18.5zM112 192q0 -40 7 -67t20.5 -43.5t32.5 -23.5t44 -7q17 0 33.5 4t29 14.5t20.5 28t8 43.5q0 91 -85 91q-37 0 -63 -11.5t-47 -28.5z" />
    <glyph glyph-name="seven" unicode="7" horiz-adv-x="328" 
d="M52 0l177 408h-218l10 59h287v-46l-182 -421h-74z" />
    <glyph glyph-name="eight" unicode="8" horiz-adv-x="423" 
d="M117 239q-38 11 -54.5 37.5t-16.5 65.5q0 33 13 57.5t35.5 41.5t52.5 25.5t65 8.5q34 0 64.5 -8.5t53 -25.5t35.5 -41.5t13 -57.5q0 -38 -17 -65t-55 -38q16 -5 31 -12t26.5 -19t18 -29.5t6.5 -42.5q0 -69 -48.5 -106t-127.5 -37t-128 37t-49 106q0 45 25 69.5t57 33.5z
M307 342q0 21 -8 35.5t-21.5 23.5t-30.5 13t-35 4t-35.5 -4t-31 -13t-21.5 -23.5t-8 -35.5q0 -41 29 -59t67 -18q19 0 36 4.5t30 14t21 24t8 34.5zM317 131q0 24 -9 40t-24 25.5t-34 13t-38 3.5q-20 0 -39 -3.5t-33.5 -13t-23.5 -25.5t-9 -40t11.5 -39.5t28 -24.5t34.5 -13
t31 -4t31 4t34.5 13t28 24.5t11.5 39.5z" />
    <glyph glyph-name="nine" unicode="9" horiz-adv-x="412" 
d="M51 93q22 -18 54.5 -30t70.5 -12q64 0 94 43t30 122q-23 -25 -54.5 -32.5t-60.5 -7.5q-41 0 -69.5 13t-46.5 34t-26 48t-8 54q0 39 13 67.5t35.5 47t53.5 27t66 8.5q86 0 127 -62t41 -183q0 -53 -11 -96.5t-35 -75t-60.5 -49t-87.5 -17.5q-56 0 -87 12.5t-50 26.5z
M300 282q0 69 -27 101.5t-73 32.5q-15 0 -31.5 -3t-31 -12.5t-23.5 -27.5t-9 -48q0 -17 4.5 -33t14 -29t26 -20.5t40.5 -7.5q32 0 62.5 12.5t47.5 34.5z" />
    <glyph glyph-name="colon" unicode=":" horiz-adv-x="174" 
d="M130 244q0 -18 -13.5 -30t-30.5 -12t-29.5 12t-12.5 30t12.5 31t29.5 13t30.5 -13t13.5 -31zM130 36q0 -17 -13.5 -29t-30.5 -12t-29.5 12t-12.5 29q0 18 12.5 31t29.5 13t30.5 -13t13.5 -31z" />
    <glyph glyph-name="semicolon" unicode=";" horiz-adv-x="174" 
d="M129 244q0 -18 -13.5 -30t-30.5 -12t-29.5 12t-12.5 30t12.5 31t29.5 13t30.5 -13t13.5 -31zM29 -66q13 8 28 21t15 27q0 9 -4.5 16t-10 14t-10 14t-4.5 17q0 13 10.5 25t31.5 12q19 0 32 -15.5t13 -44.5q0 -21 -7.5 -38.5t-20 -32t-29 -25.5t-33.5 -19z" />
    <glyph glyph-name="less" unicode="&#x3c;" horiz-adv-x="350" 
d="M31 202v46l288 137v-59l-215 -101v-1l215 -100v-60z" />
    <glyph glyph-name="equal" unicode="=" horiz-adv-x="350" 
d="M27 275v57h296v-57h-296zM27 119v57h296v-57h-296z" />
    <glyph glyph-name="greater" unicode="&#x3e;" horiz-adv-x="350" 
d="M31 64v59l215 100v2l-215 101v59l288 -137v-46z" />
    <glyph glyph-name="question" unicode="?" horiz-adv-x="307" 
d="M92 122v60q0 22 8.5 37t21.5 26t28 21t28 21.5t21.5 27t8.5 38.5q0 38 -20.5 50.5t-60.5 12.5q-25 0 -46 -6t-41 -15l-9 60q22 9 50 14t56 5q25 0 49.5 -4.5t44.5 -16.5t32.5 -33.5t12.5 -55.5q0 -33 -8.5 -55.5t-21.5 -38t-28.5 -27l-28.5 -21.5t-21.5 -21t-8.5 -27v-52
h-67zM168 34q0 -18 -12.5 -29.5t-30.5 -11.5q-17 0 -29.5 11.5t-12.5 29.5t12.5 31t29.5 13q18 0 30.5 -13t12.5 -31z" />
    <glyph glyph-name="at" unicode="@" horiz-adv-x="687" 
d="M527 -120q-10 -4 -29.5 -8t-46.5 -7.5t-60 -6t-70 -2.5q-73 0 -125 21.5t-85 61.5t-48.5 95.5t-15.5 123.5q0 155 76.5 232t222.5 77q59 0 112.5 -13.5t94 -46t64 -86t23.5 -133.5q0 -37 -7.5 -72t-23 -62t-39.5 -43t-58 -16q-14 0 -30 1t-31.5 6t-27.5 16t-18 31
q-11 -20 -33.5 -37t-63.5 -17q-54 0 -79 25t-25 70q0 32 12 53.5t32 34.5t46 18.5t54 5.5q14 0 28.5 -1.5t25.5 -2.5v31q0 17 -6.5 27t-17.5 15t-25 6t-29 1q-26 0 -53.5 -6t-43.5 -12l11 54q18 7 43 12.5t60 5.5q32 0 55.5 -5.5t39.5 -19t23.5 -37t7.5 -59.5v-121
q0 -28 13 -36.5t32 -8.5t31 12t19 32t9.5 45.5t2.5 53.5q0 111 -58 170t-170 59q-118 0 -175.5 -62.5t-57.5 -206.5q0 -116 49.5 -179t161.5 -63q65 0 117 9.5t75 17.5zM402 152l-23 2t-24 1q-40 0 -62 -12.5t-22 -45.5q0 -17 7 -27t16.5 -14.5t19.5 -5.5t16 -1
q29 0 50.5 20t21.5 51v32z" />
    <glyph glyph-name="A" unicode="A" horiz-adv-x="421" 
d="M330 0l-34 108h-172l-34 -108h-76l158 467h77l158 -467h-77zM211 377l-68 -210h134z" />
    <glyph glyph-name="B" unicode="B" horiz-adv-x="387" 
d="M49 0v467h152q22 0 46.5 -3t45.5 -15.5t35 -38t14 -71.5q0 -23 -6.5 -39.5t-16 -28t-20.5 -18.5t-20 -10q42 -11 61 -41.5t19 -64.5q0 -71 -35 -104t-116 -33h-159zM209 274q35 0 48.5 19.5t13.5 45.5t-13 46.5t-49 20.5h-89v-132h89zM224 61q9 0 20 4t20 13.5t15.5 24.5
t6.5 36q0 12 -3 25t-10.5 24t-19.5 18t-29 7h-104v-152h104z" />
    <glyph glyph-name="C" unicode="C" horiz-adv-x="404" 
d="M369 8q-21 -7 -51.5 -11t-53.5 -4q-45 0 -86.5 13t-73 41t-50.5 72t-19 107q0 51 13.5 96.5t41 79.5t69.5 53.5t98 19.5q47 0 74 -6.5t50 -15.5l-12 -66q-22 11 -48 18t-59 7q-79 0 -117 -49.5t-38 -139.5q0 -59 19.5 -92.5t46.5 -50t54 -20t42 -3.5q24 0 55 5.5t57 14.5
z" />
    <glyph glyph-name="D" unicode="D" horiz-adv-x="450" 
d="M49 0v467h158q56 0 95 -16t63.5 -46t35.5 -73.5t11 -98.5q0 -69 -17.5 -114t-46 -71.5t-64 -37t-71.5 -10.5h-164zM221 61q18 0 39 7t38.5 26.5t29 52.5t11.5 86q0 52 -11.5 85.5t-29 53t-38.5 27t-39 7.5h-101v-345h101z" />
    <glyph glyph-name="E" unicode="E" horiz-adv-x="358" 
d="M49 0v467h280l-10 -61h-199v-137h182l-11 -60h-171v-148h209l-10 -61h-270z" />
    <glyph glyph-name="F" unicode="F" horiz-adv-x="339" 
d="M49 0v467h271l-10 -61h-190v-146h169l-10 -62h-159v-198h-71z" />
    <glyph glyph-name="G" unicode="G" horiz-adv-x="453" 
d="M342 209h-112l10 60h168v-254q-10 -3 -26.5 -7t-35.5 -7.5t-39 -5.5t-36 -2q-47 0 -89.5 13t-74.5 41.5t-51 72.5t-19 106q0 51 13.5 96.5t41 79t69.5 53t98 19.5q46 0 80.5 -6.5t57.5 -16.5l-12 -65q-21 10 -55.5 17t-65.5 7q-79 0 -117 -48.5t-38 -138.5
q0 -59 20.5 -92.5t48 -50t55 -20t42.5 -3.5q18 0 37 2.5t30 5.5v144z" />
    <glyph glyph-name="H" unicode="H" horiz-adv-x="442" 
d="M323 0v209h-203v-209h-71v467h71v-198h203v198h70v-467h-70z" />
    <glyph glyph-name="I" unicode="I" horiz-adv-x="173" 
d="M51 0v467h71v-467h-71z" />
    <glyph glyph-name="J" unicode="J" horiz-adv-x="241" 
d="M8 61q14 -4 30 -6.5t29 -2.5q26 0 41 10t15 46v298h-82l10 61h142v-328q0 -44 -6 -72t-19 -44.5t-33.5 -22.5t-48.5 -6q-11 0 -32.5 1.5t-32.5 4.5z" />
    <glyph glyph-name="K" unicode="K" horiz-adv-x="417" 
d="M327 0l-132 236l-75 -90v-146h-71v467h71v-228l183 228h85l-144 -173l166 -294h-83z" />
    <glyph glyph-name="L" unicode="L" horiz-adv-x="325" 
d="M49 0v467h71v-406h186l-10 -61h-247z" />
    <glyph glyph-name="M" unicode="M" horiz-adv-x="550" 
d="M438 0v388l-122 -388h-81l-122 388v-388h-64v467h101l125 -409l126 409h100v-467h-63z" />
    <glyph glyph-name="N" unicode="N" horiz-adv-x="442" 
d="M320 0l-202 352v-352h-69v467h73l203 -352v352h68v-467h-73z" />
    <glyph glyph-name="O" unicode="O" horiz-adv-x="475" 
d="M238 -7q-39 0 -75.5 12t-64 39.5t-44 73.5t-16.5 115t16.5 115t44 74.5t64 40.5t75.5 12t75 -12t63.5 -40.5t44 -74.5t16.5 -115t-16.5 -115t-44 -73.5t-63.5 -39.5t-75 -12zM238 56q27 0 50 8t40.5 28t27 54t9.5 87t-9.5 87.5t-27 55t-40.5 28.5t-50 8t-50.5 -8
t-40.5 -28.5t-27 -55t-10 -87.5t10 -87t27 -54t40.5 -28t50.5 -8z" />
    <glyph glyph-name="P" unicode="P" horiz-adv-x="389" 
d="M49 0v467h149q45 0 76 -11.5t50 -32t27 -48.5t8 -61q0 -70 -38 -111t-111 -41h-90v-162h-71zM213 223q14 0 27.5 4t23.5 14.5t16 28t6 44.5q0 41 -18.5 66.5t-54.5 25.5h-93v-183h93z" />
    <glyph glyph-name="Q" unicode="Q" horiz-adv-x="475" 
d="M367 -104q-32 15 -68 40.5t-64 56.5q-39 0 -74.5 12.5t-62.5 40t-43.5 73.5t-16.5 114q0 69 16.5 115t44 74.5t64 40.5t75.5 12t75 -12t63.5 -40.5t44 -74.5t16.5 -115q0 -53 -9.5 -92t-27 -66.5t-40.5 -45t-50 -26.5q22 -14 48.5 -24t47.5 -17zM238 56q27 0 50 8
t40.5 28t27 54t9.5 87t-9.5 87.5t-27 55t-40.5 28.5t-50 8t-50.5 -8t-40.5 -28.5t-27 -55t-10 -87.5t10 -87t27 -54t40.5 -28t50.5 -8z" />
    <glyph glyph-name="R" unicode="R" horiz-adv-x="399" 
d="M295 0l-90 172h-85v-172h-71v467h149q86 0 123.5 -40.5t37.5 -107.5q0 -50 -22 -84.5t-61 -50.5l99 -184h-80zM213 233q13 0 26 3.5t23.5 13.5t17 26t6.5 42q0 40 -20 64t-53 24h-93v-173h93z" />
    <glyph glyph-name="S" unicode="S" horiz-adv-x="349" 
d="M37 86q22 -11 55.5 -20t66.5 -9q16 0 33 3t31 10.5t23.5 20t9.5 32.5q0 22 -16.5 38.5t-41.5 30t-54.5 27t-54.5 30.5t-41.5 40t-16.5 55q0 66 42.5 98.5t118.5 32.5q33 0 61.5 -7t53.5 -19l-11 -65q-26 12 -53 20t-53 8q-28 0 -45 -5.5t-26.5 -14.5t-12.5 -19.5
t-3 -19.5q0 -19 16.5 -33.5t41.5 -27.5t54 -26.5t54 -31t41.5 -41t16.5 -56.5q0 -36 -13 -63t-35.5 -45t-53 -27t-66.5 -9q-32 0 -67.5 5.5t-65.5 19.5z" />
    <glyph glyph-name="T" unicode="T" horiz-adv-x="362" 
d="M145 0v406h-117v61h313l-9 -61h-117v-406h-70z" />
    <glyph glyph-name="U" unicode="U" horiz-adv-x="438" 
d="M321 467h70v-308q0 -23 -5 -51.5t-23 -54t-52 -43t-92 -17.5q-57 0 -91 17.5t-52 43t-23.5 54t-5.5 51.5v308h71v-312q0 -51 28.5 -73.5t72.5 -22.5q45 0 73.5 23t28.5 73v312z" />
    <glyph glyph-name="V" unicode="V" horiz-adv-x="425" 
d="M174 0l-158 467h78l120 -377l120 377h75l-158 -467h-77z" />
    <glyph glyph-name="W" unicode="W" horiz-adv-x="610" 
d="M391 0l-86 364l-86 -364h-73l-127 467h73l90 -380l88 380h70l88 -380l89 380h74l-128 -467h-72z" />
    <glyph glyph-name="X" unicode="X" horiz-adv-x="387" 
d="M298 0l-106 197l-103 -197h-80l138 246l-126 221h79l92 -178l95 178h79l-127 -221l139 -246h-80z" />
    <glyph glyph-name="Y" unicode="Y" horiz-adv-x="397" 
d="M164 0v194l-156 273h80l110 -203l111 203h80l-155 -273v-194h-70z" />
    <glyph glyph-name="Z" unicode="Z" horiz-adv-x="380" 
d="M29 0v45l219 361h-210l11 61h290v-46l-220 -360h225v-61h-315z" />
    <glyph glyph-name="bracketleft" unicode="[" horiz-adv-x="198" 
d="M51 -102v670h134v-50h-71v-570h71v-50h-134z" />
    <glyph glyph-name="backslash" unicode="\" horiz-adv-x="346" 
d="M260 -21l-237 509h64l236 -509h-63z" />
    <glyph glyph-name="bracketright" unicode="]" horiz-adv-x="198" 
d="M13 -102v50h71v570h-71v50h134v-670h-134z" />
    <glyph glyph-name="asciicircum" unicode="^" horiz-adv-x="350" 
d="M272 219l-97 189h-2l-95 -189h-69l141 256h48l143 -256h-69z" />
    <glyph glyph-name="underscore" unicode="_" horiz-adv-x="322" 
d="M-5 -136v59h332v-59h-332z" />
    <glyph glyph-name="grave" unicode="`" horiz-adv-x="368" 
d="M101 382l-101 86h83l86 -86h-68z" />
    <glyph glyph-name="a" unicode="a" horiz-adv-x="342" 
d="M337 6q-13 -6 -24.5 -8.5t-28.5 -2.5q-18 0 -29 5.5t-17 13.5t-7.5 16t-1.5 13q-4 -7 -10.5 -15.5t-18 -15.5t-27.5 -12t-40 -5q-54 0 -80 26t-26 71q0 33 12.5 54.5t33 35t47 19t55.5 5.5q14 0 31 -1.5t23 -2.5v31q0 18 -7 28t-18 15t-25.5 6t-29.5 1q-31 0 -55.5 -5.5
t-42.5 -12.5l11 55q17 7 46 12.5t60 5.5q32 0 56 -5.5t39.5 -19.5t23.5 -37.5t8 -60.5v-155q0 -18 17 -18h8.5t8.5 2zM229 155q-8 1 -22.5 2t-25.5 1q-41 0 -62.5 -12.5t-21.5 -46.5q0 -18 7 -27.5t16.5 -14.5t19.5 -6t16 -1q30 0 51.5 20t21.5 52v33z" />
    <glyph glyph-name="b" unicode="b" horiz-adv-x="389" 
d="M48 467h67v-167q14 15 36 26.5t67 11.5q30 0 55 -9t43.5 -29t28.5 -52.5t10 -80.5q0 -57 -15 -91t-38.5 -52t-52.5 -23.5t-57 -5.5q-46 0 -84.5 5t-59.5 11v456zM115 58q11 -4 29.5 -7t36.5 -3q15 0 33 2t34 13t27 34t11 66q0 36 -6.5 59t-17.5 35.5t-27 17t-34 4.5
q-27 0 -44 -9.5t-26 -25t-12.5 -34t-3.5 -36.5v-116z" />
    <glyph glyph-name="c" unicode="c" horiz-adv-x="313" 
d="M279 10q-18 -7 -43.5 -11t-54.5 -4q-23 0 -49.5 9t-48.5 29t-36.5 53.5t-14.5 82.5q0 28 9 57.5t28 54.5t49 41t73 16q35 0 60 -4.5t44 -12.5l-11 -56q-17 7 -40.5 11.5t-43.5 4.5q-33 0 -52.5 -12t-29.5 -29.5t-12.5 -37.5t-2.5 -37q0 -33 8 -55t22.5 -34.5t34 -18
t42.5 -5.5q16 0 41.5 4.5t39.5 9.5z" />
    <glyph glyph-name="d" unicode="d" horiz-adv-x="398" 
d="M389 6q-14 -6 -25 -8.5t-29 -2.5t-28.5 5.5t-16.5 13t-8 16t-2 14.5q-10 -22 -36 -35.5t-74 -13.5q-23 0 -46.5 8t-42.5 27.5t-30.5 52t-11.5 82.5q0 36 8.5 67.5t26.5 55t45.5 37t66.5 13.5q31 0 54.5 -4t39.5 -9v142h66v-407q0 -18 17 -18h8t9 2zM280 270
q-13 4 -32.5 8.5t-45.5 4.5q-47 0 -69.5 -23.5t-22.5 -90.5q0 -57 16 -87t65 -30q44 0 66.5 26t22.5 61v131z" />
    <glyph glyph-name="e" unicode="e" horiz-adv-x="359" 
d="M304 11q-20 -8 -44 -12t-64 -4q-50 0 -81.5 13.5t-49.5 36t-24.5 52.5t-6.5 63q0 27 6 58t22.5 58t46 44.5t76.5 17.5q42 0 69.5 -12.5t44 -33.5t23 -47.5t6.5 -53.5q0 -8 -0.5 -19.5t-2.5 -22.5h-220q-1 -59 25.5 -81t73.5 -22q36 0 66 7.5t47 15.5zM266 195
q4 37 -14.5 65t-66.5 28q-23 0 -38 -7.5t-24 -20t-13 -29.5t-5 -36h161z" />
    <glyph glyph-name="f" unicode="f" horiz-adv-x="218" 
d="M61 0v279h-53l11 53h42v47q0 22 3 41.5t12.5 34t27.5 23t49 8.5q40 0 69 -11l-12 -55q-11 3 -22.5 5.5t-22.5 2.5q-22 0 -30 -7.5t-8 -32.5v-56h72v-53h-72v-279h-66z" />
    <glyph glyph-name="g" unicode="g" horiz-adv-x="384" 
d="M275 37q-10 -10 -18.5 -17.5t-20 -13t-26.5 -8.5t-38 -3q-30 0 -55.5 8.5t-44 28.5t-28.5 52.5t-10 80.5q0 57 15.5 91t40 52t54 24t57.5 6q44 0 80.5 -5.5t59.5 -11.5v-299q0 -56 -13 -88t-35.5 -48t-54.5 -19.5t-69 -3.5q-30 0 -67 7t-64 20l13 56q23 -12 56 -20t63 -8
q26 0 45.5 3t33 12t20 27t6.5 48v29zM275 274q-15 4 -32 6.5t-34 2.5q-14 0 -32 -2t-34 -12.5t-27 -33.5t-11 -65q0 -37 6 -60t17 -36t26.5 -17.5t34.5 -4.5q27 0 44 10.5t26 26.5t12.5 35t3.5 37v113z" />
    <glyph glyph-name="h" unicode="h" horiz-adv-x="374" 
d="M369 6q-20 -11 -54 -11q-4 0 -13 1t-18.5 6t-16.5 15t-7 27v180q0 32 -9.5 42.5t-32.5 10.5q-17 0 -33.5 -5.5t-31.5 -13t-26 -16l-17 -13.5v-229h-67v467h67v-179q9 9 22.5 17.5t29.5 16t33 12t33 4.5q23 0 41.5 -4t31 -15.5t19.5 -32.5t7 -56v-170q0 -18 16 -18h8.5
t9.5 2z" />
    <glyph glyph-name="i" unicode="i" horiz-adv-x="161" 
d="M121 439q0 -17 -12 -29.5t-30 -12.5q-17 0 -30 12t-13 29q0 18 13 30.5t30 12.5q18 0 30 -12.5t12 -29.5zM154 6q-20 -11 -55 -11q-4 0 -13 1t-18 6t-16 15t-7 27v288h67v-272q0 -18 16 -18h8t9 2z" />
    <glyph glyph-name="j" unicode="j" horiz-adv-x="155" 
d="M120 439q0 -17 -13 -29.5t-30 -12.5t-29.5 12t-12.5 29q0 18 12.5 30.5t29.5 12.5t30 -12.5t13 -29.5zM43 332h67v-364q0 -22 -3 -41t-13 -33.5t-28 -22.5t-49 -8q-14 0 -32.5 2.5t-35.5 8.5l13 55q9 -3 21.5 -5.5t22.5 -2.5q20 0 28.5 7.5t8.5 31.5v372z" />
    <glyph glyph-name="k" unicode="k" horiz-adv-x="328" 
d="M251 0l-102 156l-39 -43v-113h-67v467h67v-280l136 145h75l-128 -134l134 -198h-76z" />
    <glyph glyph-name="l" unicode="l" horiz-adv-x="159" 
d="M154 6q-19 -11 -54 -11q-4 0 -13 1t-18.5 6t-16.5 15t-7 27v423h67v-407q0 -18 16 -18h8.5t9.5 2z" />
    <glyph glyph-name="m" unicode="m" horiz-adv-x="574" 
d="M569 6q-20 -11 -54 -11q-4 0 -13 1t-18.5 6t-16.5 15t-7 27v180q0 32 -9 42.5t-29 10.5q-26 0 -56 -14.5t-48 -31.5v-231h-66v224q0 32 -9 42.5t-29 10.5q-14 0 -29.5 -5t-30 -12.5t-26 -16t-18.5 -14.5v-229h-67v332h67v-44q6 4 17.5 12.5t27 17t33 14.5t34.5 6
q33 0 55.5 -11t33.5 -43q7 8 19.5 17.5t28.5 17.5t34 13.5t37 5.5q22 0 40 -3.5t30.5 -15t19 -31.5t6.5 -53v-175q0 -18 16 -18h9.5t9.5 2z" />
    <glyph glyph-name="n" unicode="n" horiz-adv-x="374" 
d="M369 6q-20 -11 -54 -11q-4 0 -13 1t-18.5 6t-16.5 15t-7 27v180q0 32 -9.5 42.5t-32.5 10.5q-17 0 -33.5 -5.5t-31.5 -13t-26 -16l-17 -13.5v-229h-67v332h67v-44q9 9 22.5 17.5t29.5 16t33 12t33 4.5q23 0 41.5 -4t31 -15.5t19.5 -32.5t7 -56v-170q0 -18 16 -18h8.5
t9.5 2z" />
    <glyph glyph-name="o" unicode="o" horiz-adv-x="390" 
d="M195 -5q-32 0 -61 7t-51.5 26t-35.5 52t-13 85q0 51 13 84.5t35.5 53t51.5 27.5t61 8t61.5 -8t51.5 -27.5t35 -53t13 -84.5q0 -52 -13 -85t-35.5 -52t-51.5 -26t-61 -7zM195 46q19 0 36 4t29 17t19 36.5t7 61.5q0 39 -7 62.5t-19 37t-29 18t-36 4.5q-20 0 -36.5 -4.5
t-28.5 -18t-18.5 -37t-6.5 -62.5q0 -38 6.5 -61.5t18.5 -36.5t28.5 -17t36.5 -4z" />
    <glyph glyph-name="p" unicode="p" horiz-adv-x="384" 
d="M43 -132v464h67v-44q13 17 38.5 33.5t71.5 16.5q24 0 47 -8t41.5 -27.5t30 -52.5t11.5 -83q0 -36 -8.5 -67.5t-26.5 -54.5t-45.5 -36.5t-66.5 -13.5q-34 0 -58.5 9.5t-34.5 17.5v-154h-67zM110 81q12 -12 35 -21.5t43 -9.5q23 0 40.5 5t29 18t17.5 35t6 56
q0 60 -17.5 87.5t-64.5 27.5q-21 0 -38 -7.5t-28 -19.5t-17 -27.5t-6 -31.5v-112z" />
    <glyph glyph-name="q" unicode="q" horiz-adv-x="384" 
d="M275 -132v169q-15 -17 -36.5 -29.5t-66.5 -12.5q-30 0 -55.5 8.5t-44 28.5t-28.5 52.5t-10 80.5q0 57 15.5 91t40 52t54 24t57.5 6q42 0 77.5 -4.5t62.5 -12.5v-453h-66zM275 274q-14 4 -31 6.5t-35 2.5q-14 0 -32 -2t-34 -12.5t-27 -33.5t-11 -65q0 -38 6.5 -61t18 -36
t26.5 -17t33 -4q27 0 44 10.5t26 26.5t12.5 35t3.5 37v113z" />
    <glyph glyph-name="r" unicode="r" horiz-adv-x="246" 
d="M43 0v332h67v-43q10 23 27.5 36t34.5 13q19 0 34.5 -5.5t27.5 -12.5l-12 -55q-14 5 -26.5 7.5t-28.5 2.5q-11 0 -20 -5t-16.5 -12t-12.5 -14.5t-8 -12.5v-231h-67z" />
    <glyph glyph-name="s" unicode="s" horiz-adv-x="303" 
d="M46 68q13 -6 39.5 -13t47.5 -7q36 0 58 9.5t22 38.5q0 15 -12.5 25t-32 18t-41.5 16t-41.5 19.5t-32 28.5t-12.5 43q0 27 11.5 44.5t30.5 28t42.5 15t46.5 4.5q31 0 54 -4.5t40 -12.5l-11 -54q-20 9 -40.5 13.5t-40.5 4.5q-67 0 -67 -35q0 -14 12.5 -22.5t32 -16
l41.5 -15.5t41.5 -21t32 -31.5t12.5 -47.5q0 -23 -10.5 -42t-28.5 -32t-42.5 -20t-52.5 -7q-38 0 -65.5 4t-48.5 11z" />
    <glyph glyph-name="t" unicode="t" horiz-adv-x="223" 
d="M208 8q-17 -6 -31.5 -9.5t-42.5 -3.5q-35 0 -52 18t-17 67v199h-53l11 53h42v89l66 22v-111h69v-53h-69v-191q0 -26 7.5 -32t26.5 -6q7 0 17 2.5t16 5.5z" />
    <glyph glyph-name="u" unicode="u" horiz-adv-x="368" 
d="M363 6q-10 -5 -24 -8t-29 -3q-20 0 -31.5 7t-16.5 15.5t-6 16.5t-1 10q-17 -15 -47.5 -32t-64.5 -17q-23 0 -41.5 4t-31.5 15.5t-20 32.5t-7 56v229h67v-222q0 -35 9.5 -44.5t32.5 -9.5q16 0 32 5t30.5 12t25 15.5t15.5 14.5v229h66v-272q0 -18 17 -18h8.5t9.5 2z" />
    <glyph glyph-name="v" unicode="v" horiz-adv-x="317" 
d="M122 0l-114 332h71l79 -257l79 257h72l-114 -332h-73z" />
    <glyph glyph-name="w" unicode="w" horiz-adv-x="469" 
d="M296 0l-61 238l-61 -238h-67l-95 332h66l64 -255l63 255h60l64 -255l62 255h66l-93 -332h-68z" />
    <glyph glyph-name="x" unicode="x" horiz-adv-x="321" 
d="M240 0l-80 132l-80 -132h-73l110 174l-99 158h73l69 -121l71 121h71l-98 -158l110 -174h-74z" />
    <glyph glyph-name="y" unicode="y" horiz-adv-x="318" 
d="M9 332h71l86 -238l72 238h72l-119 -344q-13 -37 -26 -61t-28 -38.5t-32.5 -20t-39.5 -5.5q-23 0 -43 4.5t-26 7.5l13 56q12 -5 26.5 -7.5t28.5 -2.5q7 0 15 1.5t17 9.5t19 25.5t20 50.5z" />
    <glyph glyph-name="z" unicode="z" horiz-adv-x="287" 
d="M31 0v44l153 235h-151l13 53h223v-39l-157 -240h160v-53h-241z" />
    <glyph glyph-name="braceleft" unicode="{" horiz-adv-x="248" 
d="M229 -102q-43 0 -69.5 14t-41.5 43t-20.5 73t-5.5 104q0 37 -11.5 59.5t-41.5 26.5v33q30 3 41.5 24.5t11.5 59.5q0 60 6 103.5t21 72.5t41.5 43t68.5 14v-50q-25 -2 -39.5 -13.5t-22 -34t-10 -56.5t-2.5 -79q0 -27 -4 -44t-10.5 -27.5t-15 -17t-17.5 -12.5
q9 -6 17.5 -13t15 -18t10.5 -28t4 -43q0 -46 2.5 -80t10 -56.5t22 -34.5t39.5 -13v-50z" />
    <glyph glyph-name="bar" unicode="|" horiz-adv-x="173" 
d="M59 -165v700h56v-700h-56z" />
    <glyph glyph-name="braceright" unicode="}" horiz-adv-x="248" 
d="M19 -52q25 1 39.5 13t22 34.5t10 56.5t2.5 80q0 26 4 43t10.5 28t15 18t18.5 13l-18 12.5t-15.5 17t-10.5 27.5t-4 44q0 45 -2.5 79t-10 56.5t-22 34t-39.5 13.5v50q42 0 68.5 -14t41.5 -43t21 -72.5t6 -103.5q0 -38 11.5 -59.5t41.5 -24.5v-33q-30 -4 -41.5 -26.5
t-11.5 -59.5q0 -60 -5.5 -104t-20.5 -73t-41.5 -43t-69.5 -14v50z" />
    <glyph glyph-name="asciitilde" unicode="~" horiz-adv-x="350" 
d="M339 233q-17 -26 -39.5 -42.5t-55.5 -16.5q-40 0 -74 22q-14 9 -29.5 15.5t-32.5 6.5q-20 0 -34.5 -14t-25.5 -31l-37 41q17 25 39 42.5t56 17.5q21 0 39 -6t35 -16q17 -11 32 -17t31 -6q18 0 33 14t26 32z" />
    <glyph glyph-name="uni00A0" unicode="&#xa0;" horiz-adv-x="126" 
 />
    <glyph glyph-name="exclamdown" unicode="&#xa1;" horiz-adv-x="176" 
d="M88 370q-17 0 -30 13t-13 31q0 17 13 29t30 12t30 -12t13 -29q0 -18 -13 -31t-30 -13zM50 -19l9 345h58l9 -345h-76z" />
    <glyph glyph-name="cent" unicode="&#xa2;" horiz-adv-x="316" 
d="M172 0v66q-15 1 -38.5 8.5t-45 26.5t-37 51.5t-15.5 83.5q0 26 7.5 53.5t24 51t42.5 40t62 20.5v66h38v-66q30 -2 51.5 -6.5t32.5 -9.5l-11 -55q-15 7 -34.5 10.5t-38.5 5.5v-225q16 0 41 4.5t39 9.5l-12 -55q-7 -5 -27 -8.5t-41 -5.5v-66h-38zM172 343
q-23 -5 -36.5 -17.5t-20 -28.5t-8.5 -33t-2 -32q0 -51 18.5 -75t48.5 -32v218z" />
    <glyph glyph-name="sterling" unicode="&#xa3;" horiz-adv-x="413" 
d="M73 0v45q24 50 29.5 92t3.5 65h-57v56h50q-2 7 -4 18t-3.5 23.5l-3 25t-1.5 22.5q0 26 7.5 49.5t25 41t45 27.5t68.5 10q40 0 69.5 -8t51.5 -18l-11 -64q-24 13 -49 22t-55 9q-35 0 -59.5 -16.5t-24.5 -52.5q0 -13 2 -28l4 -29q3 -16 7 -32h150v-56h-143q1 -13 0 -32
t-4 -39t-8.5 -39t-14.5 -33h219l-12 -59h-282z" />
    <glyph glyph-name="currency" unicode="&#xa4;" horiz-adv-x="432" 
d="M297 137q-35 -27 -81 -27q-18 0 -40 5.5t-42 21.5l-47 -48l-32 33l48 46q-27 38 -27 80q0 21 6.5 42t20.5 38l-48 47l32 33l47 -48q21 15 42.5 21t39.5 6q19 0 41 -6.5t40 -20.5l48 48l31 -33l-48 -47q15 -20 21 -40t6 -40q0 -43 -27 -80l48 -46l-31 -33zM216 155
q19 0 36 7.5t29.5 20.5t20 30t7.5 36q0 21 -8 38t-21 29t-29.5 18.5t-34.5 6.5q-41 0 -67.5 -27t-26.5 -65q0 -19 7.5 -36t20 -30t29.5 -20.5t37 -7.5z" />
    <glyph glyph-name="yen" unicode="&#xa5;" horiz-adv-x="463" 
d="M266 87v-87h-68v87h-100v49h100v50h-100v48h77l-130 233h74l112 -214l113 214h74l-129 -233h78v-48h-101v-50h101v-49h-101z" />
    <glyph glyph-name="brokenbar" unicode="&#xa6;" horiz-adv-x="173" 
d="M59 235v300h56v-300h-56zM59 -165v306h56v-306h-56z" />
    <glyph glyph-name="section" unicode="&#xa7;" horiz-adv-x="384" 
d="M56 -67q34 -19 68.5 -25t63.5 -6q48 0 70 20t22 46q0 23 -18 38t-45.5 26t-59 21.5t-59 25t-45.5 36.5t-18 56q0 32 14.5 56t46.5 47q-17 9 -32 30.5t-15 48.5q0 24 8.5 46t27.5 38.5t48 26.5t71 10q32 0 66 -6t63 -17l-12 -63q-11 6 -26 11t-31.5 8t-32.5 5t-28 2
q-38 0 -62 -15t-24 -43q0 -19 17 -32t42 -23t55 -20t55 -24.5t42 -35.5t17 -53q0 -23 -6.5 -39.5t-15.5 -28t-19.5 -18.5t-18.5 -11q10 -6 21.5 -14.5t21 -21t15.5 -28.5t6 -36t-7 -42.5t-25 -41t-49 -30.5t-79 -12q-35 0 -75 6.5t-70 18.5zM140 250q-12 -8 -24.5 -23
t-12.5 -38q0 -21 12.5 -35t32 -24t44 -18t48.5 -17q11 8 24.5 22t13.5 38q0 18 -10 30t-28 22.5t-43.5 20.5z" />
    <glyph glyph-name="dieresis" unicode="&#xa8;" horiz-adv-x="217" 
d="M217 425q0 -17 -12.5 -29.5t-29.5 -12.5t-29.5 12.5t-12.5 29.5t12.5 29.5t29.5 12.5t29.5 -12.5t12.5 -29.5zM84 425q0 -17 -12.5 -29.5t-29.5 -12.5t-29.5 12.5t-12.5 29.5t12.5 29.5t29.5 12.5t29.5 -12.5t12.5 -29.5z" />
    <glyph glyph-name="copyright" unicode="&#xa9;" horiz-adv-x="410" 
d="M204 151q-35 0 -64.5 12.5t-51 35t-34 52.5t-12.5 65t12.5 65t34 52t51 34.5t64.5 12.5q34 0 64 -12.5t51.5 -34.5t34 -52t12.5 -65t-12.5 -65t-34 -52.5t-51.5 -35t-64 -12.5zM204 183q28 0 52 10.5t41 29t26.5 42.5t9.5 51t-9.5 51t-26.5 42.5t-41 29t-52 10.5
q-29 0 -52.5 -10.5t-40.5 -29t-26.5 -42.5t-9.5 -51t9.5 -51t26.5 -42.5t40.5 -29t52.5 -10.5zM257 237q-8 -2 -20 -4.5t-20 -2.5q-37 0 -63.5 18.5t-26.5 65.5q0 48 24 68.5t64 20.5q31 0 50 -8l-6 -32q-6 3 -19 5.5t-24 2.5q-23 0 -38 -11.5t-15 -46.5q0 -29 14.5 -40
t41.5 -11q8 0 20.5 2t23.5 7z" />
    <glyph glyph-name="ordfeminine" unicode="&#xaa;" horiz-adv-x="286" 
d="M249 260q-8 -4 -17 -5.5t-18 -1.5q-13 0 -20.5 3.5t-11 8.5t-4.5 9t-1 6q-5 -6 -17 -16.5t-44 -10.5q-35 0 -53 16t-18 45q0 21 8.5 35.5t22 23t31 12.5t35.5 4t35 -3v20q0 19 -13 25t-39 6q-21 0 -38.5 -4t-27.5 -8l8 39q11 4 32.5 7.5t37.5 3.5q42 0 63.5 -17t21.5 -65
v-93q0 -5 2.5 -9.5t7.5 -4.5q2 0 5 1t7 2zM177 353q-7 0 -15 1t-16 1q-26 0 -40 -7t-14 -30q0 -17 10 -22t28 -5q20 0 33.5 11.5t13.5 32.5v18z" />
    <glyph glyph-name="guillemotleft" unicode="&#xab;" horiz-adv-x="316" 
d="M242 66l-84 120l84 117h52l-76 -117l76 -120h-52zM126 66l-85 120l85 117h52l-76 -117l76 -120h-52z" />
    <glyph glyph-name="logicalnot" unicode="&#xac;" horiz-adv-x="350" 
d="M267 119v156h-240v57h296v-213h-56z" />
    <glyph glyph-name="uni00AD" unicode="&#xad;" horiz-adv-x="281" 
d="M51 152v58h179v-58h-179z" />
    <glyph glyph-name="registered" unicode="&#xae;" horiz-adv-x="410" 
d="M204 151q-35 0 -64.5 12.5t-51 35t-34 52.5t-12.5 65t12.5 65t34 52t51 34.5t64.5 12.5q34 0 64 -12.5t51.5 -34.5t34 -52t12.5 -65t-12.5 -65t-34 -52.5t-51.5 -35t-64 -12.5zM204 183q28 0 52 10.5t41 29t26.5 42.5t9.5 51t-9.5 51t-26.5 42.5t-41 29t-52 10.5
q-29 0 -52.5 -10.5t-40.5 -29t-26.5 -42.5t-9.5 -51t9.5 -51t26.5 -42.5t40.5 -29t52.5 -10.5zM242 232l-31 60h-25v-60h-35v169h60q31 0 45.5 -17t14.5 -41q0 -15 -7.5 -26t-19.5 -17l36 -68h-38zM211 320q10 0 17.5 6.5t7.5 17.5q0 28 -25 28h-25v-52h25z" />
    <glyph glyph-name="macron" unicode="&#xaf;" horiz-adv-x="188" 
d="M0 403v42h188v-42h-188z" />
    <glyph glyph-name="degree" unicode="&#xb0;" horiz-adv-x="259" 
d="M222 407q0 -19 -7 -36t-19.5 -29.5t-29.5 -19.5t-36 -7q-20 0 -36.5 7t-29.5 19.5t-20 29.5t-7 36t7 36t20 29.5t29.5 20t36.5 7.5q19 0 36 -7.5t29.5 -20t19.5 -29.5t7 -36zM130 346q27 0 42.5 19t15.5 42t-15.5 42t-42.5 19q-28 0 -43.5 -17.5t-15.5 -43.5t16.5 -43.5
t42.5 -17.5z" />
    <glyph glyph-name="plusminus" unicode="&#xb1;" horiz-adv-x="350" 
d="M27 18v56h296v-56h-296zM147 118v137h-120v56h120v138h56v-138h120v-56h-120v-137h-56z" />
    <glyph glyph-name="uni00B2" unicode="&#xb2;" horiz-adv-x="279" 
d="M38 213v26q71 60 107 96t36 66q0 36 -49 36q-42 0 -85 -21l8 44q39 15 79 15q51 0 73.5 -20.5t22.5 -49.5q0 -20 -10.5 -39.5t-27.5 -38.5t-39 -38l-45 -38h124l-8 -38h-186z" />
    <glyph glyph-name="uni00B3" unicode="&#xb3;" horiz-adv-x="265" 
d="M39 268q12 -9 28.5 -16t48.5 -7q9 0 19.5 1t20 5t16 13t6.5 26q0 25 -20.5 32t-47.5 7h-26v36h26q35 0 47.5 9.5t12.5 29.5q0 18 -15 25.5t-33 7.5q-35 0 -55 -6.5t-33 -12.5l7 41q14 6 31.5 11t49.5 5q48 0 72 -22t24 -49q0 -28 -14.5 -40.5t-31.5 -17.5q20 -2 37 -16
t17 -40q0 -38 -30 -60t-78 -22q-37 0 -59.5 8.5t-27.5 13.5z" />
    <glyph glyph-name="acute" unicode="&#xb4;" horiz-adv-x="169" 
d="M69 382h-69l87 86h82z" />
    <glyph glyph-name="mu" unicode="&#xb5;" horiz-adv-x="368" 
d="M43 -132v464h67v-222q0 -35 9.5 -44.5t32.5 -9.5q16 0 32 5t30.5 12t25 15.5t15.5 14.5v229h66v-272q0 -18 17 -18h8.5t9.5 2l7 -38q-10 -5 -24 -8t-29 -3q-20 0 -31.5 7t-16.5 15.5t-6 16.5t-1 10q-17 -15 -47.5 -32t-64.5 -17q-9 0 -17 0.5t-16 1.5v-129h-67z" />
    <glyph glyph-name="paragraph" unicode="&#xb6;" horiz-adv-x="408" 
d="M305 -81v499h-42v-499h-56v261h-21q-72 0 -110 36.5t-38 106.5q0 33 8 59.5t27 45.5t50 29t76 10h162v-548h-56z" />
    <glyph glyph-name="periodcentered" unicode="&#xb7;" horiz-adv-x="158" 
d="M122 246q0 -17 -13.5 -29t-30.5 -12t-29.5 12t-12.5 29q0 18 12.5 31t29.5 13t30.5 -13t13.5 -31z" />
    <glyph glyph-name="cedilla" unicode="&#xb8;" horiz-adv-x="136" 
d="M0 -151l62 108h74l-77 -108h-59z" />
    <glyph glyph-name="uni00B9" unicode="&#xb9;" horiz-adv-x="191" 
d="M77 209v221l-49 -20v34l54 23h40v-258h-45z" />
    <glyph glyph-name="ordmasculine" unicode="&#xba;" horiz-adv-x="312" 
d="M265 363q0 -33 -9.5 -54.5t-25 -33.5t-35.5 -17t-40 -5t-39.5 5t-34.5 17t-24.5 33.5t-9.5 54.5t9.5 54.5t24.5 34.5t34.5 18t39.5 5q21 0 40.5 -5t35 -18t25 -34.5t9.5 -54.5zM155 291q13 0 24.5 2t20 9.5t13.5 21.5t5 39t-5 39.5t-13.5 22t-20 9.5t-24.5 2
q-12 0 -23.5 -2t-19.5 -9.5t-13 -22t-5 -39.5t5 -39t13 -21.5t19.5 -9.5t23.5 -2z" />
    <glyph glyph-name="guillemotright" unicode="&#xbb;" horiz-adv-x="316" 
d="M138 66l76 120l-76 117h52l84 -117l-84 -120h-52zM22 66l76 120l-76 117h51l85 -117l-85 -120h-51z" />
    <glyph glyph-name="onequarter" unicode="&#xbc;" horiz-adv-x="523" 
d="M394 0v53h-132l-6 31l133 173h51v-167h47l-7 -37h-40v-53h-46zM80 0l241 467h43l-240 -467h-44zM77 209v221l-49 -20v34l54 23h40v-258h-45zM394 195l-82 -105h82v105z" />
    <glyph glyph-name="onehalf" unicode="&#xbd;" horiz-adv-x="530" 
d="M293 0v25q71 61 107 97t36 66q0 36 -49 36q-21 0 -42 -5.5t-43 -15.5l7 43q39 15 79 15q52 0 74 -20.5t22 -49.5q0 -20 -10 -39t-27 -38t-39 -38.5l-45 -38.5h123l-7 -37h-186zM80 0l241 467h43l-240 -467h-44zM77 209v221l-49 -20v34l54 23h40v-258h-45z" />
    <glyph glyph-name="threequarters" unicode="&#xbe;" horiz-adv-x="595" 
d="M466 0v53h-131l-7 31l133 173h51v-167h47l-7 -37h-40v-53h-46zM153 0l241 467h42l-240 -467h-43zM39 268q12 -9 28.5 -16t48.5 -7q9 0 19.5 1t20 5t16 13t6.5 26q0 25 -20.5 32t-47.5 7h-26v36h26q35 0 47.5 9.5t12.5 29.5q0 18 -15 25.5t-33 7.5q-35 0 -55 -6.5
t-33 -12.5l7 41q14 6 31.5 11t49.5 5q48 0 72 -22t24 -49q0 -28 -14.5 -40.5t-31.5 -17.5q20 -2 37 -16t17 -40q0 -38 -30 -60t-78 -22q-37 0 -59.5 8.5t-27.5 13.5zM466 195l-82 -105h82v105z" />
    <glyph glyph-name="questiondown" unicode="&#xbf;" horiz-adv-x="307" 
d="M181 370q-17 0 -29.5 13t-12.5 31q0 17 12.5 29t29.5 12q18 0 30.5 -12t12.5 -29q0 -18 -12.5 -31t-30.5 -13zM276 -7q-22 -9 -50 -14t-56 -5q-25 0 -49.5 4t-44.5 16t-32.5 33.5t-12.5 56.5q0 33 8.5 55.5t21.5 38t28.5 27l28.5 21.5t21.5 21t8.5 27v52h67v-60
q0 -33 -18 -51t-40 -33t-40 -34t-18 -53q0 -38 20.5 -50.5t60.5 -12.5q25 0 46 6t41 14z" />
    <glyph glyph-name="Agrave" unicode="&#xc0;" horiz-adv-x="421" 
d="M330 0l-34 108h-172l-34 -108h-76l158 467h77l158 -467h-77zM211 377l-68 -210h134zM207 519l-101 86h83l86 -86h-68z" />
    <glyph glyph-name="Aacute" unicode="&#xc1;" horiz-adv-x="421" 
d="M330 0l-34 108h-172l-34 -108h-76l158 467h77l158 -467h-77zM211 377l-68 -210h134zM215 519h-69l87 86h82z" />
    <glyph glyph-name="Acircumflex" unicode="&#xc2;" horiz-adv-x="421" 
d="M330 0l-34 108h-172l-34 -108h-76l158 467h77l158 -467h-77zM211 377l-68 -210h134zM254 520l-44 51l-43 -51h-66l78 86h63l78 -86h-66z" />
    <glyph glyph-name="Atilde" unicode="&#xc3;" horiz-adv-x="421" 
d="M330 0l-34 108h-172l-34 -108h-76l158 467h77l158 -467h-77zM211 377l-68 -210h134zM327 605q-3 -42 -15 -64.5t-47 -22.5q-12 0 -27 6.5t-30.5 15t-29 15t-21.5 6.5q-12 0 -15 -11t-4 -31h-45q2 40 14.5 65.5t47.5 25.5q12 0 27 -7t29.5 -15l28 -15t23.5 -7
q11 0 14.5 11t4.5 28h45z" />
    <glyph glyph-name="Adieresis" unicode="&#xc4;" horiz-adv-x="421" 
d="M330 0l-34 108h-172l-34 -108h-76l158 467h77l158 -467h-77zM211 377l-68 -210h134zM319 562q0 -17 -12.5 -29.5t-29.5 -12.5t-29.5 12.5t-12.5 29.5t12.5 29.5t29.5 12.5t29.5 -12.5t12.5 -29.5zM186 562q0 -17 -12.5 -29.5t-29.5 -12.5t-29.5 12.5t-12.5 29.5
t12.5 29.5t29.5 12.5t29.5 -12.5t12.5 -29.5z" />
    <glyph glyph-name="Aring" unicode="&#xc5;" horiz-adv-x="421" 
d="M330 0l-34 108h-172l-34 -108h-76l158 467h77l158 -467h-77zM211 377l-68 -210h134zM270 574q0 -25 -17.5 -42t-42.5 -17q-24 0 -41.5 17t-17.5 42t18 42.5t43 17.5t41.5 -17.5t16.5 -42.5zM241 574q0 13 -9 21.5t-22 8.5q-12 0 -21 -8.5t-9 -21.5t9 -21.5t21 -8.5
q13 0 22 8.5t9 21.5z" />
    <glyph glyph-name="AE" unicode="&#xc6;" horiz-adv-x="616" 
d="M307 0v115h-154l-61 -115h-75l253 467h317l-11 -61h-199v-137h182l-10 -60h-172v-148h210l-11 -61h-269zM307 407l-124 -233h124v233z" />
    <glyph glyph-name="Ccedilla" unicode="&#xc7;" horiz-adv-x="404" 
d="M369 8q-21 -7 -51.5 -11t-53.5 -4q-45 0 -86.5 13t-73 41t-50.5 72t-19 107q0 51 13.5 96.5t41 79.5t69.5 53.5t98 19.5q47 0 74 -6.5t50 -15.5l-12 -66q-22 11 -48 18t-59 7q-79 0 -117 -49.5t-38 -139.5q0 -59 19.5 -92.5t46.5 -50t54 -20t42 -3.5q24 0 55 5.5t57 14.5
zM134 -151l62 108h74l-77 -108h-59z" />
    <glyph glyph-name="Egrave" unicode="&#xc8;" horiz-adv-x="358" 
d="M49 0v467h280l-10 -61h-199v-137h182l-11 -60h-171v-148h209l-10 -61h-270zM195 519l-101 86h83l86 -86h-68z" />
    <glyph glyph-name="Eacute" unicode="&#xc9;" horiz-adv-x="358" 
d="M49 0v467h280l-10 -61h-199v-137h182l-11 -60h-171v-148h209l-10 -61h-270zM193 519h-69l87 86h82z" />
    <glyph glyph-name="Ecircumflex" unicode="&#xca;" horiz-adv-x="358" 
d="M49 0v467h280l-10 -61h-199v-137h182l-11 -60h-171v-148h209l-10 -61h-270zM232 520l-44 51l-43 -51h-66l78 86h63l78 -86h-66z" />
    <glyph glyph-name="Edieresis" unicode="&#xcb;" horiz-adv-x="358" 
d="M49 0v467h280l-10 -61h-199v-137h182l-11 -60h-171v-148h209l-10 -61h-270zM297 562q0 -17 -12.5 -29.5t-29.5 -12.5t-29.5 12.5t-12.5 29.5t12.5 29.5t29.5 12.5t29.5 -12.5t12.5 -29.5zM164 562q0 -17 -12.5 -29.5t-29.5 -12.5t-29.5 12.5t-12.5 29.5t12.5 29.5
t29.5 12.5t29.5 -12.5t12.5 -29.5z" />
    <glyph glyph-name="Igrave" unicode="&#xcc;" horiz-adv-x="173" 
d="M51 0v467h71v-467h-71zM73 519l-101 86h83l86 -86h-68z" />
    <glyph glyph-name="Iacute" unicode="&#xcd;" horiz-adv-x="173" 
d="M51 0v467h71v-467h-71zM91 519h-69l87 86h82z" />
    <glyph glyph-name="Icircumflex" unicode="&#xce;" horiz-adv-x="173" 
d="M51 0v467h71v-467h-71zM130 520l-44 51l-43 -51h-66l78 86h63l78 -86h-66z" />
    <glyph glyph-name="Idieresis" unicode="&#xcf;" horiz-adv-x="173" 
d="M51 0v467h71v-467h-71zM195 562q0 -17 -12.5 -29.5t-29.5 -12.5t-29.5 12.5t-12.5 29.5t12.5 29.5t29.5 12.5t29.5 -12.5t12.5 -29.5zM62 562q0 -17 -12.5 -29.5t-29.5 -12.5t-29.5 12.5t-12.5 29.5t12.5 29.5t29.5 12.5t29.5 -12.5t12.5 -29.5z" />
    <glyph glyph-name="Eth" unicode="&#xd0;" horiz-adv-x="465" 
d="M64 0v202h-64v58h64v207h158q56 0 95 -16t63.5 -46t35.5 -73.5t11 -98.5q0 -69 -17.5 -114t-46 -71.5t-64 -37t-71.5 -10.5h-164zM236 61q18 0 39 7t38.5 26.5t29 52.5t11.5 86q0 52 -11.5 85.5t-29 53t-38.5 27t-39 7.5h-101v-146h72v-58h-72v-141h101z" />
    <glyph glyph-name="Ntilde" unicode="&#xd1;" horiz-adv-x="442" 
d="M320 0l-202 352v-352h-69v467h73l203 -352v352h68v-467h-73zM338 605q-3 -42 -15 -64.5t-47 -22.5q-12 0 -27 6.5t-30.5 15t-29 15t-21.5 6.5q-12 0 -15 -11t-4 -31h-45q2 40 14.5 65.5t47.5 25.5q12 0 27 -7t29.5 -15l28 -15t23.5 -7q11 0 14.5 11t4.5 28h45z" />
    <glyph glyph-name="Ograve" unicode="&#xd2;" horiz-adv-x="475" 
d="M238 -7q-39 0 -75.5 12t-64 39.5t-44 73.5t-16.5 115t16.5 115t44 74.5t64 40.5t75.5 12t75 -12t63.5 -40.5t44 -74.5t16.5 -115t-16.5 -115t-44 -73.5t-63.5 -39.5t-75 -12zM238 56q27 0 50 8t40.5 28t27 54t9.5 87t-9.5 87.5t-27 55t-40.5 28.5t-50 8t-50.5 -8
t-40.5 -28.5t-27 -55t-10 -87.5t10 -87t27 -54t40.5 -28t50.5 -8zM234 519l-101 86h83l86 -86h-68z" />
    <glyph glyph-name="Oacute" unicode="&#xd3;" horiz-adv-x="475" 
d="M238 -7q-39 0 -75.5 12t-64 39.5t-44 73.5t-16.5 115t16.5 115t44 74.5t64 40.5t75.5 12t75 -12t63.5 -40.5t44 -74.5t16.5 -115t-16.5 -115t-44 -73.5t-63.5 -39.5t-75 -12zM238 56q27 0 50 8t40.5 28t27 54t9.5 87t-9.5 87.5t-27 55t-40.5 28.5t-50 8t-50.5 -8
t-40.5 -28.5t-27 -55t-10 -87.5t10 -87t27 -54t40.5 -28t50.5 -8zM232 519h-69l87 86h82z" />
    <glyph glyph-name="Ocircumflex" unicode="&#xd4;" horiz-adv-x="475" 
d="M238 -7q-39 0 -75.5 12t-64 39.5t-44 73.5t-16.5 115t16.5 115t44 74.5t64 40.5t75.5 12t75 -12t63.5 -40.5t44 -74.5t16.5 -115t-16.5 -115t-44 -73.5t-63.5 -39.5t-75 -12zM238 56q27 0 50 8t40.5 28t27 54t9.5 87t-9.5 87.5t-27 55t-40.5 28.5t-50 8t-50.5 -8
t-40.5 -28.5t-27 -55t-10 -87.5t10 -87t27 -54t40.5 -28t50.5 -8zM281 520l-44 51l-43 -51h-66l78 86h63l78 -86h-66z" />
    <glyph glyph-name="Otilde" unicode="&#xd5;" horiz-adv-x="475" 
d="M238 -7q-39 0 -75.5 12t-64 39.5t-44 73.5t-16.5 115t16.5 115t44 74.5t64 40.5t75.5 12t75 -12t63.5 -40.5t44 -74.5t16.5 -115t-16.5 -115t-44 -73.5t-63.5 -39.5t-75 -12zM238 56q27 0 50 8t40.5 28t27 54t9.5 87t-9.5 87.5t-27 55t-40.5 28.5t-50 8t-50.5 -8
t-40.5 -28.5t-27 -55t-10 -87.5t10 -87t27 -54t40.5 -28t50.5 -8zM354 605q-3 -42 -15 -64.5t-47 -22.5q-12 0 -27 6.5t-30.5 15t-29 15t-21.5 6.5q-12 0 -15 -11t-4 -31h-45q2 40 14.5 65.5t47.5 25.5q12 0 27 -7t29.5 -15l28 -15t23.5 -7q11 0 14.5 11t4.5 28h45z" />
    <glyph glyph-name="Odieresis" unicode="&#xd6;" horiz-adv-x="475" 
d="M238 -7q-39 0 -75.5 12t-64 39.5t-44 73.5t-16.5 115t16.5 115t44 74.5t64 40.5t75.5 12t75 -12t63.5 -40.5t44 -74.5t16.5 -115t-16.5 -115t-44 -73.5t-63.5 -39.5t-75 -12zM238 56q27 0 50 8t40.5 28t27 54t9.5 87t-9.5 87.5t-27 55t-40.5 28.5t-50 8t-50.5 -8
t-40.5 -28.5t-27 -55t-10 -87.5t10 -87t27 -54t40.5 -28t50.5 -8zM346 562q0 -17 -12.5 -29.5t-29.5 -12.5t-29.5 12.5t-12.5 29.5t12.5 29.5t29.5 12.5t29.5 -12.5t12.5 -29.5zM213 562q0 -17 -12.5 -29.5t-29.5 -12.5t-29.5 12.5t-12.5 29.5t12.5 29.5t29.5 12.5
t29.5 -12.5t12.5 -29.5z" />
    <glyph glyph-name="multiply" unicode="&#xd7;" horiz-adv-x="350" 
d="M291 68l-116 116l-115 -116l-41 40l116 115l-113 113l39 41l114 -113l114 113l40 -41l-113 -113l115 -115z" />
    <glyph glyph-name="Oslash" unicode="&#xd8;" horiz-adv-x="475" 
d="M68 -29l36 68q-30 28 -48 75t-18 119q0 69 16.5 115t44 74.5t64 40.5t75.5 12q49 0 87 -17l20 40h61l-36 -69q31 -28 49 -75.5t18 -120.5q0 -69 -16.5 -115t-44 -73.5t-63.5 -39.5t-75 -12q-23 0 -45.5 4t-42.5 13l-21 -39h-61zM180 67q13 -6 27.5 -8.5t30.5 -2.5
q27 0 50 8t40.5 28t27 54t9.5 87q0 47 -7.5 79t-21.5 53zM294 402q-12 5 -26.5 7.5t-29.5 2.5q-27 0 -50.5 -8t-40.5 -28.5t-27 -55t-10 -87.5q0 -45 7.5 -77t20.5 -52z" />
    <glyph glyph-name="Ugrave" unicode="&#xd9;" horiz-adv-x="438" 
d="M321 467h70v-308q0 -23 -5 -51.5t-23 -54t-52 -43t-92 -17.5q-57 0 -91 17.5t-52 43t-23.5 54t-5.5 51.5v308h71v-312q0 -51 28.5 -73.5t72.5 -22.5q45 0 73.5 23t28.5 73v312zM215 519l-101 86h83l86 -86h-68z" />
    <glyph glyph-name="Uacute" unicode="&#xda;" horiz-adv-x="438" 
d="M321 467h70v-308q0 -23 -5 -51.5t-23 -54t-52 -43t-92 -17.5q-57 0 -91 17.5t-52 43t-23.5 54t-5.5 51.5v308h71v-312q0 -51 28.5 -73.5t72.5 -22.5q45 0 73.5 23t28.5 73v312zM223 519h-69l87 86h82z" />
    <glyph glyph-name="Ucircumflex" unicode="&#xdb;" horiz-adv-x="438" 
d="M321 467h70v-308q0 -23 -5 -51.5t-23 -54t-52 -43t-92 -17.5q-57 0 -91 17.5t-52 43t-23.5 54t-5.5 51.5v308h71v-312q0 -51 28.5 -73.5t72.5 -22.5q45 0 73.5 23t28.5 73v312zM262 520l-44 51l-43 -51h-66l78 86h63l78 -86h-66z" />
    <glyph glyph-name="Udieresis" unicode="&#xdc;" horiz-adv-x="438" 
d="M321 467h70v-308q0 -23 -5 -51.5t-23 -54t-52 -43t-92 -17.5q-57 0 -91 17.5t-52 43t-23.5 54t-5.5 51.5v308h71v-312q0 -51 28.5 -73.5t72.5 -22.5q45 0 73.5 23t28.5 73v312zM327 562q0 -17 -12.5 -29.5t-29.5 -12.5t-29.5 12.5t-12.5 29.5t12.5 29.5t29.5 12.5
t29.5 -12.5t12.5 -29.5zM194 562q0 -17 -12.5 -29.5t-29.5 -12.5t-29.5 12.5t-12.5 29.5t12.5 29.5t29.5 12.5t29.5 -12.5t12.5 -29.5z" />
    <glyph glyph-name="Yacute" unicode="&#xdd;" horiz-adv-x="397" 
d="M164 0v194l-156 273h80l110 -203l111 203h80l-155 -273v-194h-70zM193 519h-69l87 86h82z" />
    <glyph glyph-name="Thorn" unicode="&#xde;" horiz-adv-x="389" 
d="M120 81v-81h-71v467h71v-81h85q45 0 75 -11.5t47.5 -32t24.5 -48t7 -60.5q0 -70 -38 -111.5t-111 -41.5h-90zM213 142q14 0 27.5 4t23.5 14.5t16 28.5t6 45q0 41 -15 66t-51 25h-100v-183h93z" />
    <glyph glyph-name="germandbls" unicode="&#xdf;" horiz-adv-x="380" 
d="M153 66q14 -8 33.5 -13.5t42.5 -5.5q32 0 44 13.5t12 36.5q0 19 -9.5 32.5t-24 24t-31 20t-31 20.5t-24 25.5t-9.5 35.5q0 26 13.5 42t30 27.5t30 22t13.5 27.5q0 31 -19 43.5t-40 12.5q-36 0 -53 -20t-17 -54v-356h-65v349q0 63 33 97t102 34q24 0 46.5 -6t39.5 -19
t27 -33t10 -47q0 -25 -15 -42.5t-33.5 -30.5l-33.5 -23t-15 -20q0 -11 10 -20.5t25 -19l33 -20.5t33 -25t25 -33t10 -44q0 -50 -30.5 -76t-86.5 -26q-29 0 -51.5 4.5t-37.5 10.5z" />
    <glyph glyph-name="agrave" unicode="&#xe0;" horiz-adv-x="342" 
d="M337 6q-13 -6 -24.5 -8.5t-28.5 -2.5q-18 0 -29 5.5t-17 13.5t-7.5 16t-1.5 13q-4 -7 -10.5 -15.5t-18 -15.5t-27.5 -12t-40 -5q-54 0 -80 26t-26 71q0 33 12.5 54.5t33 35t47 19t55.5 5.5q14 0 31 -1.5t23 -2.5v31q0 18 -7 28t-18 15t-25.5 6t-29.5 1q-31 0 -55.5 -5.5
t-42.5 -12.5l11 55q17 7 46 12.5t60 5.5q32 0 56 -5.5t39.5 -19.5t23.5 -37.5t8 -60.5v-155q0 -18 17 -18h8.5t8.5 2zM229 155q-8 1 -22.5 2t-25.5 1q-41 0 -62.5 -12.5t-21.5 -46.5q0 -18 7 -27.5t16.5 -14.5t19.5 -6t16 -1q30 0 51.5 20t21.5 52v33zM180 382l-101 86h83
l86 -86h-68z" />
    <glyph glyph-name="aacute" unicode="&#xe1;" horiz-adv-x="342" 
d="M337 6q-13 -6 -24.5 -8.5t-28.5 -2.5q-18 0 -29 5.5t-17 13.5t-7.5 16t-1.5 13q-4 -7 -10.5 -15.5t-18 -15.5t-27.5 -12t-40 -5q-54 0 -80 26t-26 71q0 33 12.5 54.5t33 35t47 19t55.5 5.5q14 0 31 -1.5t23 -2.5v31q0 18 -7 28t-18 15t-25.5 6t-29.5 1q-31 0 -55.5 -5.5
t-42.5 -12.5l11 55q17 7 46 12.5t60 5.5q32 0 56 -5.5t39.5 -19.5t23.5 -37.5t8 -60.5v-155q0 -18 17 -18h8.5t8.5 2zM229 155q-8 1 -22.5 2t-25.5 1q-41 0 -62.5 -12.5t-21.5 -46.5q0 -18 7 -27.5t16.5 -14.5t19.5 -6t16 -1q30 0 51.5 20t21.5 52v33zM168 382h-69l87 86h82
z" />
    <glyph glyph-name="acircumflex" unicode="&#xe2;" horiz-adv-x="342" 
d="M337 6q-13 -6 -24.5 -8.5t-28.5 -2.5q-18 0 -29 5.5t-17 13.5t-7.5 16t-1.5 13q-4 -7 -10.5 -15.5t-18 -15.5t-27.5 -12t-40 -5q-54 0 -80 26t-26 71q0 33 12.5 54.5t33 35t47 19t55.5 5.5q14 0 31 -1.5t23 -2.5v31q0 18 -7 28t-18 15t-25.5 6t-29.5 1q-31 0 -55.5 -5.5
t-42.5 -12.5l11 55q17 7 46 12.5t60 5.5q32 0 56 -5.5t39.5 -19.5t23.5 -37.5t8 -60.5v-155q0 -18 17 -18h8.5t8.5 2zM229 155q-8 1 -22.5 2t-25.5 1q-41 0 -62.5 -12.5t-21.5 -46.5q0 -18 7 -27.5t16.5 -14.5t19.5 -6t16 -1q30 0 51.5 20t21.5 52v33zM217 383l-44 51
l-43 -51h-66l78 86h63l78 -86h-66z" />
    <glyph glyph-name="atilde" unicode="&#xe3;" horiz-adv-x="342" 
d="M337 6q-13 -6 -24.5 -8.5t-28.5 -2.5q-18 0 -29 5.5t-17 13.5t-7.5 16t-1.5 13q-4 -7 -10.5 -15.5t-18 -15.5t-27.5 -12t-40 -5q-54 0 -80 26t-26 71q0 33 12.5 54.5t33 35t47 19t55.5 5.5q14 0 31 -1.5t23 -2.5v31q0 18 -7 28t-18 15t-25.5 6t-29.5 1q-31 0 -55.5 -5.5
t-42.5 -12.5l11 55q17 7 46 12.5t60 5.5q32 0 56 -5.5t39.5 -19.5t23.5 -37.5t8 -60.5v-155q0 -18 17 -18h8.5t8.5 2zM229 155q-8 1 -22.5 2t-25.5 1q-41 0 -62.5 -12.5t-21.5 -46.5q0 -18 7 -27.5t16.5 -14.5t19.5 -6t16 -1q30 0 51.5 20t21.5 52v33zM291 468
q-3 -42 -15 -64.5t-47 -22.5q-12 0 -27 6.5t-30.5 15t-29 15t-21.5 6.5q-12 0 -15 -11t-4 -31h-45q2 40 14.5 65.5t47.5 25.5q12 0 27 -7t29.5 -15l28 -15t23.5 -7q11 0 14.5 11t4.5 28h45z" />
    <glyph glyph-name="adieresis" unicode="&#xe4;" horiz-adv-x="342" 
d="M337 6q-13 -6 -24.5 -8.5t-28.5 -2.5q-18 0 -29 5.5t-17 13.5t-7.5 16t-1.5 13q-4 -7 -10.5 -15.5t-18 -15.5t-27.5 -12t-40 -5q-54 0 -80 26t-26 71q0 33 12.5 54.5t33 35t47 19t55.5 5.5q14 0 31 -1.5t23 -2.5v31q0 18 -7 28t-18 15t-25.5 6t-29.5 1q-31 0 -55.5 -5.5
t-42.5 -12.5l11 55q17 7 46 12.5t60 5.5q32 0 56 -5.5t39.5 -19.5t23.5 -37.5t8 -60.5v-155q0 -18 17 -18h8.5t8.5 2zM229 155q-8 1 -22.5 2t-25.5 1q-41 0 -62.5 -12.5t-21.5 -46.5q0 -18 7 -27.5t16.5 -14.5t19.5 -6t16 -1q30 0 51.5 20t21.5 52v33zM282 425
q0 -17 -12.5 -29.5t-29.5 -12.5t-29.5 12.5t-12.5 29.5t12.5 29.5t29.5 12.5t29.5 -12.5t12.5 -29.5zM149 425q0 -17 -12.5 -29.5t-29.5 -12.5t-29.5 12.5t-12.5 29.5t12.5 29.5t29.5 12.5t29.5 -12.5t12.5 -29.5z" />
    <glyph glyph-name="aring" unicode="&#xe5;" horiz-adv-x="342" 
d="M337 6q-13 -6 -24.5 -8.5t-28.5 -2.5q-18 0 -29 5.5t-17 13.5t-7.5 16t-1.5 13q-4 -7 -10.5 -15.5t-18 -15.5t-27.5 -12t-40 -5q-54 0 -80 26t-26 71q0 33 12.5 54.5t33 35t47 19t55.5 5.5q14 0 31 -1.5t23 -2.5v31q0 18 -7 28t-18 15t-25.5 6t-29.5 1q-31 0 -55.5 -5.5
t-42.5 -12.5l11 55q17 7 46 12.5t60 5.5q32 0 56 -5.5t39.5 -19.5t23.5 -37.5t8 -60.5v-155q0 -18 17 -18h8.5t8.5 2zM229 155q-8 1 -22.5 2t-25.5 1q-41 0 -62.5 -12.5t-21.5 -46.5q0 -18 7 -27.5t16.5 -14.5t19.5 -6t16 -1q30 0 51.5 20t21.5 52v33zM233 437
q0 -25 -17.5 -42t-42.5 -17q-24 0 -41.5 17t-17.5 42t18 42.5t43 17.5t41.5 -17.5t16.5 -42.5zM204 437q0 13 -9 21.5t-22 8.5q-12 0 -21 -8.5t-9 -21.5t9 -21.5t21 -8.5q13 0 22 8.5t9 21.5z" />
    <glyph glyph-name="ae" unicode="&#xe6;" horiz-adv-x="539" 
d="M485 11q-22 -8 -45.5 -12t-60.5 -4q-49 0 -79 16.5t-47 42.5q-6 -9 -15 -19.5t-23 -19t-33 -14.5t-44 -6q-52 0 -81.5 22t-29.5 73q0 31 12 52t32.5 33.5t46.5 17.5t54 5q12 0 27 -0.5t26 -2.5v30q0 18 -6.5 28.5t-17.5 16t-25 7t-29 1.5q-32 0 -56.5 -6t-40.5 -12l11 54
q16 6 41.5 12t62.5 6q32 0 59.5 -9t44.5 -35q17 20 40.5 32t58.5 12q40 0 66.5 -12t43 -31.5t23.5 -45t7 -51.5q0 -22 -3 -43h-216q-1 -57 23.5 -80.5t74.5 -23.5q35 0 63 6.5t48 16.5zM447 195q4 35 -14.5 61.5t-64.5 26.5q-42 0 -59.5 -25t-19.5 -63h158zM225 149
q-11 1 -24 2t-23 1q-36 0 -59.5 -11t-23.5 -44q0 -17 7 -27.5t16 -16t19 -7t16 -1.5q30 0 51 22t21 53v29z" />
    <glyph glyph-name="ccedilla" unicode="&#xe7;" horiz-adv-x="313" 
d="M279 10q-18 -7 -43.5 -11t-54.5 -4q-23 0 -49.5 9t-48.5 29t-36.5 53.5t-14.5 82.5q0 28 9 57.5t28 54.5t49 41t73 16q35 0 60 -4.5t44 -12.5l-11 -56q-17 7 -40.5 11.5t-43.5 4.5q-33 0 -52.5 -12t-29.5 -29.5t-12.5 -37.5t-2.5 -37q0 -33 8 -55t22.5 -34.5t34 -18
t42.5 -5.5q16 0 41.5 4.5t39.5 9.5zM92 -151l62 108h74l-77 -108h-59z" />
    <glyph glyph-name="egrave" unicode="&#xe8;" horiz-adv-x="359" 
d="M304 11q-20 -8 -44 -12t-64 -4q-50 0 -81.5 13.5t-49.5 36t-24.5 52.5t-6.5 63q0 27 6 58t22.5 58t46 44.5t76.5 17.5q42 0 69.5 -12.5t44 -33.5t23 -47.5t6.5 -53.5q0 -8 -0.5 -19.5t-2.5 -22.5h-220q-1 -59 25.5 -81t73.5 -22q36 0 66 7.5t47 15.5zM266 195
q4 37 -14.5 65t-66.5 28q-23 0 -38 -7.5t-24 -20t-13 -29.5t-5 -36h161zM191 382l-101 86h83l86 -86h-68z" />
    <glyph glyph-name="eacute" unicode="&#xe9;" horiz-adv-x="359" 
d="M304 11q-20 -8 -44 -12t-64 -4q-50 0 -81.5 13.5t-49.5 36t-24.5 52.5t-6.5 63q0 27 6 58t22.5 58t46 44.5t76.5 17.5q42 0 69.5 -12.5t44 -33.5t23 -47.5t6.5 -53.5q0 -8 -0.5 -19.5t-2.5 -22.5h-220q-1 -59 25.5 -81t73.5 -22q36 0 66 7.5t47 15.5zM266 195
q4 37 -14.5 65t-66.5 28q-23 0 -38 -7.5t-24 -20t-13 -29.5t-5 -36h161zM189 382h-69l87 86h82z" />
    <glyph glyph-name="ecircumflex" unicode="&#xea;" horiz-adv-x="359" 
d="M304 11q-20 -8 -44 -12t-64 -4q-50 0 -81.5 13.5t-49.5 36t-24.5 52.5t-6.5 63q0 27 6 58t22.5 58t46 44.5t76.5 17.5q42 0 69.5 -12.5t44 -33.5t23 -47.5t6.5 -53.5q0 -8 -0.5 -19.5t-2.5 -22.5h-220q-1 -59 25.5 -81t73.5 -22q36 0 66 7.5t47 15.5zM266 195
q4 37 -14.5 65t-66.5 28q-23 0 -38 -7.5t-24 -20t-13 -29.5t-5 -36h161zM228 383l-44 51l-43 -51h-66l78 86h63l78 -86h-66z" />
    <glyph glyph-name="edieresis" unicode="&#xeb;" horiz-adv-x="359" 
d="M304 11q-20 -8 -44 -12t-64 -4q-50 0 -81.5 13.5t-49.5 36t-24.5 52.5t-6.5 63q0 27 6 58t22.5 58t46 44.5t76.5 17.5q42 0 69.5 -12.5t44 -33.5t23 -47.5t6.5 -53.5q0 -8 -0.5 -19.5t-2.5 -22.5h-220q-1 -59 25.5 -81t73.5 -22q36 0 66 7.5t47 15.5zM266 195
q4 37 -14.5 65t-66.5 28q-23 0 -38 -7.5t-24 -20t-13 -29.5t-5 -36h161zM293 425q0 -17 -12.5 -29.5t-29.5 -12.5t-29.5 12.5t-12.5 29.5t12.5 29.5t29.5 12.5t29.5 -12.5t12.5 -29.5zM160 425q0 -17 -12.5 -29.5t-29.5 -12.5t-29.5 12.5t-12.5 29.5t12.5 29.5t29.5 12.5
t29.5 -12.5t12.5 -29.5z" />
    <glyph glyph-name="igrave" unicode="&#xec;" horiz-adv-x="161" 
d="M154 6q-20 -11 -55 -11q-4 0 -13 1t-18 6t-16 15t-7 27v288h67v-272q0 -18 16 -18h8t9 2zM84 382l-101 86h83l86 -86h-68z" />
    <glyph glyph-name="iacute" unicode="&#xed;" horiz-adv-x="161" 
d="M154 6q-20 -11 -55 -11q-4 0 -13 1t-18 6t-16 15t-7 27v288h67v-272q0 -18 16 -18h8t9 2zM72 382h-69l87 86h82z" />
    <glyph glyph-name="icircumflex" unicode="&#xee;" horiz-adv-x="161" 
d="M154 6q-20 -11 -55 -11q-4 0 -13 1t-18 6t-16 15t-7 27v288h67v-272q0 -18 16 -18h8t9 2zM121 383l-44 51l-43 -51h-66l78 86h63l78 -86h-66z" />
    <glyph glyph-name="idieresis" unicode="&#xef;" horiz-adv-x="161" 
d="M154 6q-20 -11 -55 -11q-4 0 -13 1t-18 6t-16 15t-7 27v288h67v-272q0 -18 16 -18h8t9 2zM186 425q0 -17 -12.5 -29.5t-29.5 -12.5t-29.5 12.5t-12.5 29.5t12.5 29.5t29.5 12.5t29.5 -12.5t12.5 -29.5zM53 425q0 -17 -12.5 -29.5t-29.5 -12.5t-29.5 12.5t-12.5 29.5
t12.5 29.5t29.5 12.5t29.5 -12.5t12.5 -29.5z" />
    <glyph glyph-name="eth" unicode="&#xf0;" horiz-adv-x="390" 
d="M281 395q29 -48 50.5 -109.5t21.5 -123.5q0 -51 -13 -83t-35 -51t-50.5 -26t-59.5 -7q-32 0 -60.5 7t-50 26t-34.5 51t-13 83t13 83.5t34.5 52t50 27t60.5 7.5q12 0 30.5 -3.5t24.5 -7.5q-6 15 -12.5 28.5t-14.5 27.5l-70 -24l-11 42l61 21q-11 19 -19 31t-15 20h70
l21 -33l75 25l12 -43zM266 258q-12 8 -31 16t-40 8q-20 0 -36 -4.5t-28 -17.5t-18.5 -36.5t-6.5 -61.5t6.5 -60.5t18.5 -35.5t28 -17t36 -4q19 0 35.5 4t28.5 17t18.5 35.5t6.5 60.5q0 33 -5 56.5t-13 39.5z" />
    <glyph glyph-name="ntilde" unicode="&#xf1;" horiz-adv-x="374" 
d="M369 6q-20 -11 -54 -11q-4 0 -13 1t-18.5 6t-16.5 15t-7 27v180q0 32 -9.5 42.5t-32.5 10.5q-17 0 -33.5 -5.5t-31.5 -13t-26 -16l-17 -13.5v-229h-67v332h67v-44q9 9 22.5 17.5t29.5 16t33 12t33 4.5q23 0 41.5 -4t31 -15.5t19.5 -32.5t7 -56v-170q0 -18 16 -18h8.5
t9.5 2zM307 468q-3 -42 -15 -64.5t-47 -22.5q-12 0 -27 6.5t-30.5 15t-29 15t-21.5 6.5q-12 0 -15 -11t-4 -31h-45q2 40 14.5 65.5t47.5 25.5q12 0 27 -7t29.5 -15l28 -15t23.5 -7q11 0 14.5 11t4.5 28h45z" />
    <glyph glyph-name="ograve" unicode="&#xf2;" horiz-adv-x="390" 
d="M195 -5q-32 0 -61 7t-51.5 26t-35.5 52t-13 85q0 51 13 84.5t35.5 53t51.5 27.5t61 8t61.5 -8t51.5 -27.5t35 -53t13 -84.5q0 -52 -13 -85t-35.5 -52t-51.5 -26t-61 -7zM195 46q19 0 36 4t29 17t19 36.5t7 61.5q0 39 -7 62.5t-19 37t-29 18t-36 4.5q-20 0 -36.5 -4.5
t-28.5 -18t-18.5 -37t-6.5 -62.5q0 -38 6.5 -61.5t18.5 -36.5t28.5 -17t36.5 -4zM196 382l-101 86h83l86 -86h-68z" />
    <glyph glyph-name="oacute" unicode="&#xf3;" horiz-adv-x="390" 
d="M195 -5q-32 0 -61 7t-51.5 26t-35.5 52t-13 85q0 51 13 84.5t35.5 53t51.5 27.5t61 8t61.5 -8t51.5 -27.5t35 -53t13 -84.5q0 -52 -13 -85t-35.5 -52t-51.5 -26t-61 -7zM195 46q19 0 36 4t29 17t19 36.5t7 61.5q0 39 -7 62.5t-19 37t-29 18t-36 4.5q-20 0 -36.5 -4.5
t-28.5 -18t-18.5 -37t-6.5 -62.5q0 -38 6.5 -61.5t18.5 -36.5t28.5 -17t36.5 -4zM194 382h-69l87 86h82z" />
    <glyph glyph-name="ocircumflex" unicode="&#xf4;" horiz-adv-x="390" 
d="M195 -5q-32 0 -61 7t-51.5 26t-35.5 52t-13 85q0 51 13 84.5t35.5 53t51.5 27.5t61 8t61.5 -8t51.5 -27.5t35 -53t13 -84.5q0 -52 -13 -85t-35.5 -52t-51.5 -26t-61 -7zM195 46q19 0 36 4t29 17t19 36.5t7 61.5q0 39 -7 62.5t-19 37t-29 18t-36 4.5q-20 0 -36.5 -4.5
t-28.5 -18t-18.5 -37t-6.5 -62.5q0 -38 6.5 -61.5t18.5 -36.5t28.5 -17t36.5 -4zM243 383l-44 51l-43 -51h-66l78 86h63l78 -86h-66z" />
    <glyph glyph-name="otilde" unicode="&#xf5;" horiz-adv-x="390" 
d="M195 -5q-32 0 -61 7t-51.5 26t-35.5 52t-13 85q0 51 13 84.5t35.5 53t51.5 27.5t61 8t61.5 -8t51.5 -27.5t35 -53t13 -84.5q0 -52 -13 -85t-35.5 -52t-51.5 -26t-61 -7zM195 46q19 0 36 4t29 17t19 36.5t7 61.5q0 39 -7 62.5t-19 37t-29 18t-36 4.5q-20 0 -36.5 -4.5
t-28.5 -18t-18.5 -37t-6.5 -62.5q0 -38 6.5 -61.5t18.5 -36.5t28.5 -17t36.5 -4zM317 468q-3 -42 -15 -64.5t-47 -22.5q-12 0 -27 6.5t-30.5 15t-29 15t-21.5 6.5q-12 0 -15 -11t-4 -31h-45q2 40 14.5 65.5t47.5 25.5q12 0 27 -7t29.5 -15l28 -15t23.5 -7q11 0 14.5 11
t4.5 28h45z" />
    <glyph glyph-name="odieresis" unicode="&#xf6;" horiz-adv-x="390" 
d="M195 -5q-32 0 -61 7t-51.5 26t-35.5 52t-13 85q0 51 13 84.5t35.5 53t51.5 27.5t61 8t61.5 -8t51.5 -27.5t35 -53t13 -84.5q0 -52 -13 -85t-35.5 -52t-51.5 -26t-61 -7zM195 46q19 0 36 4t29 17t19 36.5t7 61.5q0 39 -7 62.5t-19 37t-29 18t-36 4.5q-20 0 -36.5 -4.5
t-28.5 -18t-18.5 -37t-6.5 -62.5q0 -38 6.5 -61.5t18.5 -36.5t28.5 -17t36.5 -4zM308 425q0 -17 -12.5 -29.5t-29.5 -12.5t-29.5 12.5t-12.5 29.5t12.5 29.5t29.5 12.5t29.5 -12.5t12.5 -29.5zM175 425q0 -17 -12.5 -29.5t-29.5 -12.5t-29.5 12.5t-12.5 29.5t12.5 29.5
t29.5 12.5t29.5 -12.5t12.5 -29.5z" />
    <glyph glyph-name="divide" unicode="&#xf7;" horiz-adv-x="350" 
d="M176 318q-17 0 -29 11.5t-12 28.5t11.5 28.5t29.5 11.5q17 0 28 -11.5t11 -28.5q0 -19 -12 -29.5t-27 -10.5zM27 198v55h296v-55h-296zM176 52q-17 0 -29 11.5t-12 28.5t11.5 29t29.5 12q17 0 28 -11.5t11 -29.5t-12 -29t-27 -11z" />
    <glyph glyph-name="oslash" unicode="&#xf8;" horiz-adv-x="390" 
d="M74 -29l25 48q-26 17 -43 51t-17 92q0 51 13 83.5t34.5 52t50 27t60.5 7.5q33 0 63 -9l16 33h45l-26 -49q27 -18 43.5 -52.5t16.5 -92.5q0 -51 -13 -83t-35 -51t-50.5 -26t-59.5 -7q-17 0 -32.5 1.5t-29.5 6.5l-17 -32h-44zM160 50q14 -5 37 -5q19 0 35.5 4t28.5 17
t18.5 35.5t6.5 60.5q0 33 -5 55t-14 36zM235 276q-8 4 -17.5 5t-20.5 1q-20 0 -36 -4.5t-28 -17.5t-18.5 -36.5t-6.5 -61.5q0 -33 5 -54.5t14 -35.5z" />
    <glyph glyph-name="ugrave" unicode="&#xf9;" horiz-adv-x="368" 
d="M363 6q-10 -5 -24 -8t-29 -3q-20 0 -31.5 7t-16.5 15.5t-6 16.5t-1 10q-17 -15 -47.5 -32t-64.5 -17q-23 0 -41.5 4t-31.5 15.5t-20 32.5t-7 56v229h67v-222q0 -35 9.5 -44.5t32.5 -9.5q16 0 32 5t30.5 12t25 15.5t15.5 14.5v229h66v-272q0 -18 17 -18h8.5t9.5 2z
M193 382l-101 86h83l86 -86h-68z" />
    <glyph glyph-name="uacute" unicode="&#xfa;" horiz-adv-x="368" 
d="M363 6q-10 -5 -24 -8t-29 -3q-20 0 -31.5 7t-16.5 15.5t-6 16.5t-1 10q-17 -15 -47.5 -32t-64.5 -17q-23 0 -41.5 4t-31.5 15.5t-20 32.5t-7 56v229h67v-222q0 -35 9.5 -44.5t32.5 -9.5q16 0 32 5t30.5 12t25 15.5t15.5 14.5v229h66v-272q0 -18 17 -18h8.5t9.5 2z
M181 382h-69l87 86h82z" />
    <glyph glyph-name="ucircumflex" unicode="&#xfb;" horiz-adv-x="368" 
d="M363 6q-10 -5 -24 -8t-29 -3q-20 0 -31.5 7t-16.5 15.5t-6 16.5t-1 10q-17 -15 -47.5 -32t-64.5 -17q-23 0 -41.5 4t-31.5 15.5t-20 32.5t-7 56v229h67v-222q0 -35 9.5 -44.5t32.5 -9.5q16 0 32 5t30.5 12t25 15.5t15.5 14.5v229h66v-272q0 -18 17 -18h8.5t9.5 2z
M230 383l-44 51l-43 -51h-66l78 86h63l78 -86h-66z" />
    <glyph glyph-name="udieresis" unicode="&#xfc;" horiz-adv-x="368" 
d="M363 6q-10 -5 -24 -8t-29 -3q-20 0 -31.5 7t-16.5 15.5t-6 16.5t-1 10q-17 -15 -47.5 -32t-64.5 -17q-23 0 -41.5 4t-31.5 15.5t-20 32.5t-7 56v229h67v-222q0 -35 9.5 -44.5t32.5 -9.5q16 0 32 5t30.5 12t25 15.5t15.5 14.5v229h66v-272q0 -18 17 -18h8.5t9.5 2z
M295 425q0 -17 -12.5 -29.5t-29.5 -12.5t-29.5 12.5t-12.5 29.5t12.5 29.5t29.5 12.5t29.5 -12.5t12.5 -29.5zM162 425q0 -17 -12.5 -29.5t-29.5 -12.5t-29.5 12.5t-12.5 29.5t12.5 29.5t29.5 12.5t29.5 -12.5t12.5 -29.5z" />
    <glyph glyph-name="yacute" unicode="&#xfd;" horiz-adv-x="318" 
d="M9 332h71l86 -238l72 238h72l-119 -344q-13 -37 -26 -61t-28 -38.5t-32.5 -20t-39.5 -5.5q-23 0 -43 4.5t-26 7.5l13 56q12 -5 26.5 -7.5t28.5 -2.5q7 0 15 1.5t17 9.5t19 25.5t20 50.5zM167 382h-69l87 86h82z" />
    <glyph glyph-name="thorn" unicode="&#xfe;" horiz-adv-x="384" 
d="M43 -130v597h65v-184q8 17 35.5 33t72.5 16q23 0 46 -8t41 -27t29.5 -51.5t11.5 -81.5q0 -35 -8.5 -66t-26 -54t-44.5 -36t-65 -13q-36 0 -58.5 8.5t-33.5 18.5v-152h-65zM108 80q7 -10 30.5 -20.5t46.5 -10.5q45 0 68 23t23 89q0 59 -17 86t-63 27q-21 0 -37.5 -7.5
t-27.5 -19.5t-17 -27t-6 -30v-110z" />
    <glyph glyph-name="ydieresis" unicode="&#xff;" horiz-adv-x="318" 
d="M9 332h71l86 -238l72 238h72l-119 -344q-13 -37 -26 -61t-28 -38.5t-32.5 -20t-39.5 -5.5q-23 0 -43 4.5t-26 7.5l13 56q12 -5 26.5 -7.5t28.5 -2.5q7 0 15 1.5t17 9.5t19 25.5t20 50.5zM271 425q0 -17 -12.5 -29.5t-29.5 -12.5t-29.5 12.5t-12.5 29.5t12.5 29.5
t29.5 12.5t29.5 -12.5t12.5 -29.5zM138 425q0 -17 -12.5 -29.5t-29.5 -12.5t-29.5 12.5t-12.5 29.5t12.5 29.5t29.5 12.5t29.5 -12.5t12.5 -29.5z" />
    <glyph glyph-name="Amacron" unicode="&#x100;" horiz-adv-x="421" 
d="M330 0l-34 108h-172l-34 -108h-76l158 467h77l158 -467h-77zM211 377l-68 -210h134zM117 540v42h188v-42h-188z" />
    <glyph glyph-name="amacron" unicode="&#x101;" horiz-adv-x="342" 
d="M337 6q-13 -6 -24.5 -8.5t-28.5 -2.5q-18 0 -29 5.5t-17 13.5t-7.5 16t-1.5 13q-4 -7 -10.5 -15.5t-18 -15.5t-27.5 -12t-40 -5q-54 0 -80 26t-26 71q0 33 12.5 54.5t33 35t47 19t55.5 5.5q14 0 31 -1.5t23 -2.5v31q0 18 -7 28t-18 15t-25.5 6t-29.5 1q-31 0 -55.5 -5.5
t-42.5 -12.5l11 55q17 7 46 12.5t60 5.5q32 0 56 -5.5t39.5 -19.5t23.5 -37.5t8 -60.5v-155q0 -18 17 -18h8.5t8.5 2zM229 155q-8 1 -22.5 2t-25.5 1q-41 0 -62.5 -12.5t-21.5 -46.5q0 -18 7 -27.5t16.5 -14.5t19.5 -6t16 -1q30 0 51.5 20t21.5 52v33zM77 403v42h188v-42
h-188z" />
    <glyph glyph-name="Abreve" unicode="&#x102;" horiz-adv-x="421" 
d="M330 0l-34 108h-172l-34 -108h-76l158 467h77l158 -467h-77zM211 377l-68 -210h134zM302 606q-2 -45 -27 -67t-65 -22t-64 22t-26 67h45q2 -22 13.5 -36t32.5 -14t32 14t13 36h46z" />
    <glyph glyph-name="abreve" unicode="&#x103;" horiz-adv-x="342" 
d="M337 6q-13 -6 -24.5 -8.5t-28.5 -2.5q-18 0 -29 5.5t-17 13.5t-7.5 16t-1.5 13q-4 -7 -10.5 -15.5t-18 -15.5t-27.5 -12t-40 -5q-54 0 -80 26t-26 71q0 33 12.5 54.5t33 35t47 19t55.5 5.5q14 0 31 -1.5t23 -2.5v31q0 18 -7 28t-18 15t-25.5 6t-29.5 1q-31 0 -55.5 -5.5
t-42.5 -12.5l11 55q17 7 46 12.5t60 5.5q32 0 56 -5.5t39.5 -19.5t23.5 -37.5t8 -60.5v-155q0 -18 17 -18h8.5t8.5 2zM229 155q-8 1 -22.5 2t-25.5 1q-41 0 -62.5 -12.5t-21.5 -46.5q0 -18 7 -27.5t16.5 -14.5t19.5 -6t16 -1q30 0 51.5 20t21.5 52v33zM262 469
q-2 -45 -27 -67t-65 -22t-64 22t-26 67h45q2 -22 13.5 -36t32.5 -14t32 14t13 36h46z" />
    <glyph glyph-name="Aogonek" unicode="&#x104;" horiz-adv-x="421" 
d="M414 -143q-6 -2 -17.5 -3.5t-17.5 -1.5q-46 0 -66 20t-20 52q0 12 5.5 24t14 22t18 18t18.5 12h-19l-34 108h-172l-34 -108h-76l158 467h77l158 -467q-21 -11 -41.5 -32.5t-20.5 -44.5q0 -14 9.5 -23.5t31.5 -9.5q6 0 14.5 1t19.5 4zM211 377l-68 -210h134z" />
    <glyph glyph-name="aogonek" unicode="&#x105;" horiz-adv-x="342" 
d="M329 -143q-6 -2 -17.5 -3.5t-17.5 -1.5q-46 0 -66 20t-20 52q0 12 5 23t12.5 21t17 17.5t17.5 12.5q-20 7 -25.5 22t-5.5 23q-4 -7 -10.5 -15.5t-18 -15.5t-27.5 -12t-40 -5q-54 0 -80 26t-26 71q0 33 12.5 54.5t33 35t47 19t55.5 5.5q14 0 31 -1.5t23 -2.5v31
q0 18 -7 28t-18 15t-25.5 6t-29.5 1q-31 0 -55.5 -5.5t-42.5 -12.5l11 55q17 7 46 12.5t60 5.5q32 0 56 -5.5t39.5 -19.5t23.5 -37.5t8 -60.5v-155q0 -18 17 -18h8.5t8.5 2l8 -38q-9 -5 -16 -6q-21 -11 -41 -32.5t-20 -44.5q0 -14 9.5 -23.5t31.5 -9.5q6 0 14.5 1t19.5 4z
M229 155q-8 1 -22.5 2t-25.5 1q-41 0 -62.5 -12.5t-21.5 -46.5q0 -18 7 -27.5t16.5 -14.5t19.5 -6t16 -1q30 0 51.5 20t21.5 52v33z" />
    <glyph glyph-name="Cacute" unicode="&#x106;" horiz-adv-x="404" 
d="M369 8q-21 -7 -51.5 -11t-53.5 -4q-45 0 -86.5 13t-73 41t-50.5 72t-19 107q0 51 13.5 96.5t41 79.5t69.5 53.5t98 19.5q47 0 74 -6.5t50 -15.5l-12 -66q-22 11 -48 18t-59 7q-79 0 -117 -49.5t-38 -139.5q0 -59 19.5 -92.5t46.5 -50t54 -20t42 -3.5q24 0 55 5.5t57 14.5
zM247 519h-69l87 86h82z" />
    <glyph glyph-name="cacute" unicode="&#x107;" horiz-adv-x="313" 
d="M279 10q-18 -7 -43.5 -11t-54.5 -4q-23 0 -49.5 9t-48.5 29t-36.5 53.5t-14.5 82.5q0 28 9 57.5t28 54.5t49 41t73 16q35 0 60 -4.5t44 -12.5l-11 -56q-17 7 -40.5 11.5t-43.5 4.5q-33 0 -52.5 -12t-29.5 -29.5t-12.5 -37.5t-2.5 -37q0 -33 8 -55t22.5 -34.5t34 -18
t42.5 -5.5q16 0 41.5 4.5t39.5 9.5zM191 382h-69l87 86h82z" />
    <glyph glyph-name="Ccircumflex" unicode="&#x108;" horiz-adv-x="404" 
d="M369 8q-21 -7 -51.5 -11t-53.5 -4q-45 0 -86.5 13t-73 41t-50.5 72t-19 107q0 51 13.5 96.5t41 79.5t69.5 53.5t98 19.5q47 0 74 -6.5t50 -15.5l-12 -66q-22 11 -48 18t-59 7q-79 0 -117 -49.5t-38 -139.5q0 -59 19.5 -92.5t46.5 -50t54 -20t42 -3.5q24 0 55 5.5t57 14.5
zM286 520l-44 51l-43 -51h-66l78 86h63l78 -86h-66z" />
    <glyph glyph-name="ccircumflex" unicode="&#x109;" horiz-adv-x="313" 
d="M279 10q-18 -7 -43.5 -11t-54.5 -4q-23 0 -49.5 9t-48.5 29t-36.5 53.5t-14.5 82.5q0 28 9 57.5t28 54.5t49 41t73 16q35 0 60 -4.5t44 -12.5l-11 -56q-17 7 -40.5 11.5t-43.5 4.5q-33 0 -52.5 -12t-29.5 -29.5t-12.5 -37.5t-2.5 -37q0 -33 8 -55t22.5 -34.5t34 -18
t42.5 -5.5q16 0 41.5 4.5t39.5 9.5zM230 383l-44 51l-43 -51h-66l78 86h63l78 -86h-66z" />
    <glyph glyph-name="Cdotaccent" unicode="&#x10a;" horiz-adv-x="404" 
d="M369 8q-21 -7 -51.5 -11t-53.5 -4q-45 0 -86.5 13t-73 41t-50.5 72t-19 107q0 51 13.5 96.5t41 79.5t69.5 53.5t98 19.5q47 0 74 -6.5t50 -15.5l-12 -66q-22 11 -48 18t-59 7q-79 0 -117 -49.5t-38 -139.5q0 -59 19.5 -92.5t46.5 -50t54 -20t42 -3.5q24 0 55 5.5t57 14.5
zM284 562q0 -17 -12.5 -29.5t-29.5 -12.5t-29.5 12.5t-12.5 29.5t12.5 29.5t29.5 12.5t29.5 -12.5t12.5 -29.5z" />
    <glyph glyph-name="cdotaccent" unicode="&#x10b;" horiz-adv-x="313" 
d="M279 10q-18 -7 -43.5 -11t-54.5 -4q-23 0 -49.5 9t-48.5 29t-36.5 53.5t-14.5 82.5q0 28 9 57.5t28 54.5t49 41t73 16q35 0 60 -4.5t44 -12.5l-11 -56q-17 7 -40.5 11.5t-43.5 4.5q-33 0 -52.5 -12t-29.5 -29.5t-12.5 -37.5t-2.5 -37q0 -33 8 -55t22.5 -34.5t34 -18
t42.5 -5.5q16 0 41.5 4.5t39.5 9.5zM229 425q0 -17 -12.5 -29.5t-29.5 -12.5t-29.5 12.5t-12.5 29.5t12.5 29.5t29.5 12.5t29.5 -12.5t12.5 -29.5z" />
    <glyph glyph-name="Ccaron" unicode="&#x10c;" horiz-adv-x="404" 
d="M369 8q-21 -7 -51.5 -11t-53.5 -4q-45 0 -86.5 13t-73 41t-50.5 72t-19 107q0 51 13.5 96.5t41 79.5t69.5 53.5t98 19.5q47 0 74 -6.5t50 -15.5l-12 -66q-22 11 -48 18t-59 7q-79 0 -117 -49.5t-38 -139.5q0 -59 19.5 -92.5t46.5 -50t54 -20t42 -3.5q24 0 55 5.5t57 14.5
zM211 519l-78 85h66l44 -51l43 51h66l-78 -85h-63z" />
    <glyph glyph-name="ccaron" unicode="&#x10d;" horiz-adv-x="313" 
d="M279 10q-18 -7 -43.5 -11t-54.5 -4q-23 0 -49.5 9t-48.5 29t-36.5 53.5t-14.5 82.5q0 28 9 57.5t28 54.5t49 41t73 16q35 0 60 -4.5t44 -12.5l-11 -56q-17 7 -40.5 11.5t-43.5 4.5q-33 0 -52.5 -12t-29.5 -29.5t-12.5 -37.5t-2.5 -37q0 -33 8 -55t22.5 -34.5t34 -18
t42.5 -5.5q16 0 41.5 4.5t39.5 9.5zM155 382l-78 85h66l44 -51l43 51h66l-78 -85h-63z" />
    <glyph glyph-name="Dcaron" unicode="&#x10e;" horiz-adv-x="450" 
d="M49 0v467h158q56 0 95 -16t63.5 -46t35.5 -73.5t11 -98.5q0 -69 -17.5 -114t-46 -71.5t-64 -37t-71.5 -10.5h-164zM221 61q18 0 39 7t38.5 26.5t29 52.5t11.5 86q0 52 -11.5 85.5t-29 53t-38.5 27t-39 7.5h-101v-345h101zM174 519l-78 85h66l44 -51l43 51h66l-78 -85h-63
z" />
    <glyph glyph-name="dcaron" unicode="&#x10f;" horiz-adv-x="423" 
d="M389 6q-14 -6 -25 -8.5t-29 -2.5t-28.5 5.5t-16.5 13t-8 16t-2 14.5q-10 -22 -36 -35.5t-74 -13.5q-23 0 -46.5 8t-42.5 27.5t-30.5 52t-11.5 82.5q0 36 8.5 67.5t26.5 55t45.5 37t66.5 13.5q31 0 54.5 -4t39.5 -9v142h66v-407q0 -18 17 -18h8t9 2zM280 270
q-13 4 -32.5 8.5t-45.5 4.5q-47 0 -69.5 -23.5t-22.5 -90.5q0 -57 16 -87t65 -30q44 0 66.5 26t22.5 61v131zM386 361q11 6 22.5 16.5t11.5 21.5q0 7 -3.5 13t-8 11t-8 11t-3.5 14q0 10 8.5 19.5t25.5 9.5q15 0 25.5 -12.5t10.5 -35.5q0 -33 -22 -56t-50 -36z" />
    <glyph glyph-name="Dcroat" unicode="&#x110;" horiz-adv-x="465" 
d="M64 0v202h-64v58h64v207h158q56 0 95 -16t63.5 -46t35.5 -73.5t11 -98.5q0 -69 -17.5 -114t-46 -71.5t-64 -37t-71.5 -10.5h-164zM236 61q18 0 39 7t38.5 26.5t29 52.5t11.5 86q0 52 -11.5 85.5t-29 53t-38.5 27t-39 7.5h-101v-146h72v-58h-72v-141h101z" />
    <glyph glyph-name="dcroat" unicode="&#x111;" horiz-adv-x="398" 
d="M389 6q-14 -6 -25 -8.5t-29 -2.5t-28.5 5.5t-16.5 13t-8 16t-2 14.5q-10 -22 -36 -35.5t-74 -13.5q-23 0 -46.5 8t-42.5 27.5t-30.5 52t-11.5 82.5q0 36 8.5 67.5t26.5 55t45.5 37t66.5 13.5q31 0 54.5 -4t39.5 -9v51h-99v53h99v38h66v-38h35v-53h-35v-316q0 -18 17 -18
h8t9 2zM280 270q-13 4 -32.5 8.5t-45.5 4.5q-47 0 -69.5 -23.5t-22.5 -90.5q0 -57 16 -87t65 -30q44 0 66.5 26t22.5 61v131z" />
    <glyph glyph-name="Emacron" unicode="&#x112;" horiz-adv-x="358" 
d="M49 0v467h280l-10 -61h-199v-137h182l-11 -60h-171v-148h209l-10 -61h-270zM95 540v42h188v-42h-188z" />
    <glyph glyph-name="emacron" unicode="&#x113;" horiz-adv-x="359" 
d="M304 11q-20 -8 -44 -12t-64 -4q-50 0 -81.5 13.5t-49.5 36t-24.5 52.5t-6.5 63q0 27 6 58t22.5 58t46 44.5t76.5 17.5q42 0 69.5 -12.5t44 -33.5t23 -47.5t6.5 -53.5q0 -8 -0.5 -19.5t-2.5 -22.5h-220q-1 -59 25.5 -81t73.5 -22q36 0 66 7.5t47 15.5zM266 195
q4 37 -14.5 65t-66.5 28q-23 0 -38 -7.5t-24 -20t-13 -29.5t-5 -36h161zM91 403v42h188v-42h-188z" />
    <glyph glyph-name="Ebreve" unicode="&#x114;" horiz-adv-x="358" 
d="M49 0v467h280l-10 -61h-199v-137h182l-11 -60h-171v-148h209l-10 -61h-270zM280 606q-2 -45 -27 -67t-65 -22t-64 22t-26 67h45q2 -22 13.5 -36t32.5 -14t32 14t13 36h46z" />
    <glyph glyph-name="ebreve" unicode="&#x115;" horiz-adv-x="359" 
d="M304 11q-20 -8 -44 -12t-64 -4q-50 0 -81.5 13.5t-49.5 36t-24.5 52.5t-6.5 63q0 27 6 58t22.5 58t46 44.5t76.5 17.5q42 0 69.5 -12.5t44 -33.5t23 -47.5t6.5 -53.5q0 -8 -0.5 -19.5t-2.5 -22.5h-220q-1 -59 25.5 -81t73.5 -22q36 0 66 7.5t47 15.5zM266 195
q4 37 -14.5 65t-66.5 28q-23 0 -38 -7.5t-24 -20t-13 -29.5t-5 -36h161zM276 469q-2 -45 -27 -67t-65 -22t-64 22t-26 67h45q2 -22 13.5 -36t32.5 -14t32 14t13 36h46z" />
    <glyph glyph-name="Edotaccent" unicode="&#x116;" horiz-adv-x="358" 
d="M49 0v467h280l-10 -61h-199v-137h182l-11 -60h-171v-148h209l-10 -61h-270zM231 562q0 -17 -12.5 -29.5t-29.5 -12.5t-29.5 12.5t-12.5 29.5t12.5 29.5t29.5 12.5t29.5 -12.5t12.5 -29.5z" />
    <glyph glyph-name="edotaccent" unicode="&#x117;" horiz-adv-x="359" 
d="M304 11q-20 -8 -44 -12t-64 -4q-50 0 -81.5 13.5t-49.5 36t-24.5 52.5t-6.5 63q0 27 6 58t22.5 58t46 44.5t76.5 17.5q42 0 69.5 -12.5t44 -33.5t23 -47.5t6.5 -53.5q0 -8 -0.5 -19.5t-2.5 -22.5h-220q-1 -59 25.5 -81t73.5 -22q36 0 66 7.5t47 15.5zM266 195
q4 37 -14.5 65t-66.5 28q-23 0 -38 -7.5t-24 -20t-13 -29.5t-5 -36h161zM227 425q0 -17 -12.5 -29.5t-29.5 -12.5t-29.5 12.5t-12.5 29.5t12.5 29.5t29.5 12.5t29.5 -12.5t12.5 -29.5z" />
    <glyph glyph-name="Eogonek" unicode="&#x118;" horiz-adv-x="358" 
d="M303 -143q-6 -2 -17.5 -3.5t-17.5 -1.5q-46 0 -66 20t-20 52q0 12 5.5 24t14 22t18 18t18.5 12h-189v467h280l-10 -61h-199v-137h182l-11 -60h-171v-148h209l-10 -61h-23q-21 -11 -41.5 -32.5t-20.5 -44.5q0 -14 9.5 -23.5t31.5 -9.5q6 0 14.5 1t19.5 4z" />
    <glyph glyph-name="eogonek" unicode="&#x119;" horiz-adv-x="359" 
d="M304 11l-15 -5q-12 -4 -25.5 -12.5t-24.5 -19.5t-18 -24.5t-7 -26.5q0 -14 9.5 -23.5t31.5 -9.5q6 0 14.5 1t19.5 4l-6 -38q-6 -2 -17.5 -3.5t-17.5 -1.5q-46 0 -66 20t-20 52q0 21 15 40.5t32 30.5h-13q-50 0 -81.5 13.5t-49.5 36t-24.5 52.5t-6.5 63q0 27 6 58t22.5 58
t46 44.5t76.5 17.5q42 0 69.5 -12.5t44 -33.5t23 -47.5t6.5 -53.5q0 -8 -0.5 -19.5t-2.5 -22.5h-220q-1 -59 25.5 -81t73.5 -22q36 0 66 7.5t47 15.5zM266 195q4 37 -14.5 65t-66.5 28q-23 0 -38 -7.5t-24 -20t-13 -29.5t-5 -36h161z" />
    <glyph glyph-name="Ecaron" unicode="&#x11a;" horiz-adv-x="358" 
d="M49 0v467h280l-10 -61h-199v-137h182l-11 -60h-171v-148h209l-10 -61h-270zM158 519l-78 85h66l44 -51l43 51h66l-78 -85h-63z" />
    <glyph glyph-name="ecaron" unicode="&#x11b;" horiz-adv-x="359" 
d="M304 11q-20 -8 -44 -12t-64 -4q-50 0 -81.5 13.5t-49.5 36t-24.5 52.5t-6.5 63q0 27 6 58t22.5 58t46 44.5t76.5 17.5q42 0 69.5 -12.5t44 -33.5t23 -47.5t6.5 -53.5q0 -8 -0.5 -19.5t-2.5 -22.5h-220q-1 -59 25.5 -81t73.5 -22q36 0 66 7.5t47 15.5zM266 195
q4 37 -14.5 65t-66.5 28q-23 0 -38 -7.5t-24 -20t-13 -29.5t-5 -36h161zM153 382l-78 85h66l44 -51l43 51h66l-78 -85h-63z" />
    <glyph glyph-name="Gcircumflex" unicode="&#x11c;" horiz-adv-x="453" 
d="M342 209h-112l10 60h168v-254q-10 -3 -26.5 -7t-35.5 -7.5t-39 -5.5t-36 -2q-47 0 -89.5 13t-74.5 41.5t-51 72.5t-19 106q0 51 13.5 96.5t41 79t69.5 53t98 19.5q46 0 80.5 -6.5t57.5 -16.5l-12 -65q-21 10 -55.5 17t-65.5 7q-79 0 -117 -48.5t-38 -138.5
q0 -59 20.5 -92.5t48 -50t55 -20t42.5 -3.5q18 0 37 2.5t30 5.5v144zM290 520l-44 51l-43 -51h-66l78 86h63l78 -86h-66z" />
    <glyph glyph-name="gcircumflex" unicode="&#x11d;" horiz-adv-x="384" 
d="M275 37q-10 -10 -18.5 -17.5t-20 -13t-26.5 -8.5t-38 -3q-30 0 -55.5 8.5t-44 28.5t-28.5 52.5t-10 80.5q0 57 15.5 91t40 52t54 24t57.5 6q44 0 80.5 -5.5t59.5 -11.5v-299q0 -56 -13 -88t-35.5 -48t-54.5 -19.5t-69 -3.5q-30 0 -67 7t-64 20l13 56q23 -12 56 -20t63 -8
q26 0 45.5 3t33 12t20 27t6.5 48v29zM275 274q-15 4 -32 6.5t-34 2.5q-14 0 -32 -2t-34 -12.5t-27 -33.5t-11 -65q0 -37 6 -60t17 -36t26.5 -17.5t34.5 -4.5q27 0 44 10.5t26 26.5t12.5 35t3.5 37v113zM236 383l-44 51l-43 -51h-66l78 86h63l78 -86h-66z" />
    <glyph glyph-name="Gbreve" unicode="&#x11e;" horiz-adv-x="453" 
d="M342 209h-112l10 60h168v-254q-10 -3 -26.5 -7t-35.5 -7.5t-39 -5.5t-36 -2q-47 0 -89.5 13t-74.5 41.5t-51 72.5t-19 106q0 51 13.5 96.5t41 79t69.5 53t98 19.5q46 0 80.5 -6.5t57.5 -16.5l-12 -65q-21 10 -55.5 17t-65.5 7q-79 0 -117 -48.5t-38 -138.5
q0 -59 20.5 -92.5t48 -50t55 -20t42.5 -3.5q18 0 37 2.5t30 5.5v144zM338 606q-2 -45 -27 -67t-65 -22t-64 22t-26 67h45q2 -22 13.5 -36t32.5 -14t32 14t13 36h46z" />
    <glyph glyph-name="gbreve" unicode="&#x11f;" horiz-adv-x="384" 
d="M275 37q-10 -10 -18.5 -17.5t-20 -13t-26.5 -8.5t-38 -3q-30 0 -55.5 8.5t-44 28.5t-28.5 52.5t-10 80.5q0 57 15.5 91t40 52t54 24t57.5 6q44 0 80.5 -5.5t59.5 -11.5v-299q0 -56 -13 -88t-35.5 -48t-54.5 -19.5t-69 -3.5q-30 0 -67 7t-64 20l13 56q23 -12 56 -20t63 -8
q26 0 45.5 3t33 12t20 27t6.5 48v29zM275 274q-15 4 -32 6.5t-34 2.5q-14 0 -32 -2t-34 -12.5t-27 -33.5t-11 -65q0 -37 6 -60t17 -36t26.5 -17.5t34.5 -4.5q27 0 44 10.5t26 26.5t12.5 35t3.5 37v113zM283 469q-2 -45 -27 -67t-65 -22t-64 22t-26 67h45q2 -22 13.5 -36
t32.5 -14t32 14t13 36h46z" />
    <glyph glyph-name="Gdotaccent" unicode="&#x120;" horiz-adv-x="453" 
d="M342 209h-112l10 60h168v-254q-10 -3 -26.5 -7t-35.5 -7.5t-39 -5.5t-36 -2q-47 0 -89.5 13t-74.5 41.5t-51 72.5t-19 106q0 51 13.5 96.5t41 79t69.5 53t98 19.5q46 0 80.5 -6.5t57.5 -16.5l-12 -65q-21 10 -55.5 17t-65.5 7q-79 0 -117 -48.5t-38 -138.5
q0 -59 20.5 -92.5t48 -50t55 -20t42.5 -3.5q18 0 37 2.5t30 5.5v144zM299 562q0 -17 -12.5 -29.5t-29.5 -12.5t-29.5 12.5t-12.5 29.5t12.5 29.5t29.5 12.5t29.5 -12.5t12.5 -29.5z" />
    <glyph glyph-name="gdotaccent" unicode="&#x121;" horiz-adv-x="384" 
d="M275 37q-10 -10 -18.5 -17.5t-20 -13t-26.5 -8.5t-38 -3q-30 0 -55.5 8.5t-44 28.5t-28.5 52.5t-10 80.5q0 57 15.5 91t40 52t54 24t57.5 6q44 0 80.5 -5.5t59.5 -11.5v-299q0 -56 -13 -88t-35.5 -48t-54.5 -19.5t-69 -3.5q-30 0 -67 7t-64 20l13 56q23 -12 56 -20t63 -8
q26 0 45.5 3t33 12t20 27t6.5 48v29zM275 274q-15 4 -32 6.5t-34 2.5q-14 0 -32 -2t-34 -12.5t-27 -33.5t-11 -65q0 -37 6 -60t17 -36t26.5 -17.5t34.5 -4.5q27 0 44 10.5t26 26.5t12.5 35t3.5 37v113zM234 425q0 -17 -12.5 -29.5t-29.5 -12.5t-29.5 12.5t-12.5 29.5
t12.5 29.5t29.5 12.5t29.5 -12.5t12.5 -29.5z" />
    <glyph glyph-name="uni0122" unicode="&#x122;" horiz-adv-x="453" 
d="M342 209h-112l10 60h168v-254q-10 -3 -26.5 -7t-35.5 -7.5t-39 -5.5t-36 -2q-47 0 -89.5 13t-74.5 41.5t-51 72.5t-19 106q0 51 13.5 96.5t41 79t69.5 53t98 19.5q46 0 80.5 -6.5t57.5 -16.5l-12 -65q-21 10 -55.5 17t-65.5 7q-79 0 -117 -48.5t-38 -138.5
q0 -59 20.5 -92.5t48 -50t55 -20t42.5 -3.5q18 0 37 2.5t30 5.5v144zM212 -159q11 6 22.5 16.5t11.5 21.5q0 7 -3.5 13t-8 11t-8 11t-3.5 14q0 10 8.5 19.5t25.5 9.5q15 0 25.5 -12.5t10.5 -35.5q0 -33 -22 -56t-50 -36z" />
    <glyph glyph-name="uni0123" unicode="&#x123;" horiz-adv-x="384" 
d="M275 37q-10 -10 -18.5 -17.5t-20 -13t-26.5 -8.5t-38 -3q-30 0 -55.5 8.5t-44 28.5t-28.5 52.5t-10 80.5q0 57 15.5 91t40 52t54 24t57.5 6q44 0 80.5 -5.5t59.5 -11.5v-299q0 -56 -13 -88t-35.5 -48t-54.5 -19.5t-69 -3.5q-30 0 -67 7t-64 20l13 56q23 -12 56 -20t63 -8
q26 0 45.5 3t33 12t20 27t6.5 48v29zM275 274q-15 4 -32 6.5t-34 2.5q-14 0 -32 -2t-34 -12.5t-27 -33.5t-11 -65q0 -37 6 -60t17 -36t26.5 -17.5t34.5 -4.5q27 0 44 10.5t26 26.5t12.5 35t3.5 37v113zM234 499q-11 -6 -22.5 -16.5t-11.5 -21.5q0 -8 3.5 -13.5t8 -10.5
t8 -11t3.5 -14q0 -10 -8.5 -19.5t-25.5 -9.5q-15 0 -25.5 12.5t-10.5 35.5q0 33 22 56t50 36z" />
    <glyph glyph-name="Hcircumflex" unicode="&#x124;" horiz-adv-x="442" 
d="M323 0v209h-203v-209h-71v467h71v-198h203v198h70v-467h-70zM260 520l-44 51l-43 -51h-66l78 86h63l78 -86h-66z" />
    <glyph glyph-name="hcircumflex" unicode="&#x125;" horiz-adv-x="374" 
d="M369 6q-20 -11 -54 -11q-4 0 -13 1t-18.5 6t-16.5 15t-7 27v180q0 32 -9.5 42.5t-32.5 10.5q-17 0 -33.5 -5.5t-31.5 -13t-26 -16l-17 -13.5v-229h-67v467h67v-179q9 9 22.5 17.5t29.5 16t33 12t33 4.5q23 0 41.5 -4t31 -15.5t19.5 -32.5t7 -56v-170q0 -18 16 -18h8.5
t9.5 2zM121 520l-44 51l-43 -51h-66l78 86h63l78 -86h-66z" />
    <glyph glyph-name="Hbar" unicode="&#x126;" horiz-adv-x="442" 
d="M323 0v209h-203v-209h-71v338h-50v60h50v69h71v-69h203v69h70v-69h50v-60h-50v-338h-70zM323 269v69h-203v-69h203z" />
    <glyph glyph-name="hbar" unicode="&#x127;" horiz-adv-x="374" 
d="M369 6q-20 -11 -54 -11q-4 0 -13 1t-18.5 6t-16.5 15t-7 27v180q0 32 -9.5 42.5t-32.5 10.5q-17 0 -33.5 -5.5t-31.5 -13t-26 -16l-17 -13.5v-229h-67v376h-45v53h45v38h67v-38h108v-53h-108v-88q9 9 22.5 17.5t29.5 16t33 12t33 4.5q23 0 41.5 -4t31 -15.5t19.5 -32.5
t7 -56v-170q0 -18 16 -18h8.5t9.5 2z" />
    <glyph glyph-name="Itilde" unicode="&#x128;" horiz-adv-x="173" 
d="M51 0v467h71v-467h-71zM203 605q-3 -42 -15 -64.5t-47 -22.5q-12 0 -27 6.5t-30.5 15t-29 15t-21.5 6.5q-12 0 -15 -11t-4 -31h-45q2 40 14.5 65.5t47.5 25.5q12 0 27 -7t29.5 -15l28 -15t23.5 -7q11 0 14.5 11t4.5 28h45z" />
    <glyph glyph-name="itilde" unicode="&#x129;" horiz-adv-x="161" 
d="M154 6q-20 -11 -55 -11q-4 0 -13 1t-18 6t-16 15t-7 27v288h67v-272q0 -18 16 -18h8t9 2zM197 468q-3 -42 -15 -64.5t-47 -22.5q-12 0 -27 6.5t-30.5 15t-29 15t-21.5 6.5q-12 0 -15 -11t-4 -31h-45q2 40 14.5 65.5t47.5 25.5q12 0 27 -7t29.5 -15l28 -15t23.5 -7
q11 0 14.5 11t4.5 28h45z" />
    <glyph glyph-name="Imacron" unicode="&#x12a;" horiz-adv-x="173" 
d="M51 0v467h71v-467h-71zM-8 540v42h188v-42h-188z" />
    <glyph glyph-name="imacron" unicode="&#x12b;" horiz-adv-x="161" 
d="M154 6q-20 -11 -55 -11q-4 0 -13 1t-18 6t-16 15t-7 27v288h67v-272q0 -18 16 -18h8t9 2zM-14 403v42h188v-42h-188z" />
    <glyph glyph-name="Ibreve" unicode="&#x12c;" horiz-adv-x="173" 
d="M51 0v467h71v-467h-71zM177 606q-2 -45 -27 -67t-65 -22t-64 22t-26 67h45q2 -22 13.5 -36t32.5 -14t32 14t13 36h46z" />
    <glyph glyph-name="ibreve" unicode="&#x12d;" horiz-adv-x="161" 
d="M154 6q-20 -11 -55 -11q-4 0 -13 1t-18 6t-16 15t-7 27v288h67v-272q0 -18 16 -18h8t9 2zM171 469q-2 -45 -27 -67t-65 -22t-64 22t-26 67h45q2 -22 13.5 -36t32.5 -14t32 14t13 36h46z" />
    <glyph glyph-name="Iogonek" unicode="&#x12e;" horiz-adv-x="173" 
d="M129 -143q-6 -2 -17.5 -3.5t-17.5 -1.5q-46 0 -66 20t-20 52q0 12 5.5 24t14 22t18 18t18.5 12h-13v467h71v-467q-21 -11 -41.5 -32.5t-20.5 -44.5q0 -14 9.5 -23.5t31.5 -9.5q6 0 14.5 1t19.5 4z" />
    <glyph glyph-name="iogonek" unicode="&#x12f;" horiz-adv-x="161" 
d="M150 -143q-6 -2 -17.5 -3.5t-17.5 -1.5q-46 0 -66 20t-20 52q0 23 17 43.5t34 30.5q-12 3 -23.5 13t-11.5 33v288h67v-272q0 -18 16 -18h8t9 2l9 -38l-13 -6q-11 -6 -21.5 -14.5t-19 -18.5t-14 -21.5t-5.5 -22.5q0 -14 9.5 -23.5t31.5 -9.5q6 0 14.5 1t19.5 4zM121 439
q0 -17 -12 -29.5t-30 -12.5q-17 0 -30 12t-13 29q0 18 13 30.5t30 12.5q18 0 30 -12.5t12 -29.5z" />
    <glyph glyph-name="Idotaccent" unicode="&#x130;" horiz-adv-x="173" 
d="M51 0v467h71v-467h-71zM129 562q0 -17 -12.5 -29.5t-29.5 -12.5t-29.5 12.5t-12.5 29.5t12.5 29.5t29.5 12.5t29.5 -12.5t12.5 -29.5z" />
    <glyph glyph-name="dotlessi" unicode="&#x131;" horiz-adv-x="161" 
d="M154 6q-20 -11 -55 -11q-4 0 -13 1t-18 6t-16 15t-7 27v288h67v-272q0 -18 16 -18h8t9 2z" />
    <glyph glyph-name="Jcircumflex" unicode="&#x134;" horiz-adv-x="241" 
d="M8 61q14 -4 30 -6.5t29 -2.5q26 0 41 10t15 46v298h-82l10 61h142v-328q0 -44 -6 -72t-19 -44.5t-33.5 -22.5t-48.5 -6q-11 0 -32.5 1.5t-32.5 4.5zM164 520l-44 51l-43 -51h-66l78 86h63l78 -86h-66z" />
    <glyph glyph-name="jcircumflex" unicode="&#x135;" horiz-adv-x="155" 
d="M43 332h67v-364q0 -22 -3 -41t-13 -33.5t-28 -22.5t-49 -8q-14 0 -32.5 2.5t-35.5 8.5l13 55q9 -3 21.5 -5.5t22.5 -2.5q20 0 28.5 7.5t8.5 31.5v372zM121 383l-44 51l-43 -51h-66l78 86h63l78 -86h-66z" />
    <glyph glyph-name="uni0136" unicode="&#x136;" horiz-adv-x="417" 
d="M327 0l-132 236l-75 -90v-146h-71v467h71v-228l183 228h85l-144 -173l166 -294h-83zM174 -159q11 6 22.5 16.5t11.5 21.5q0 7 -3.5 13t-8 11t-8 11t-3.5 14q0 10 8.5 19.5t25.5 9.5q15 0 25.5 -12.5t10.5 -35.5q0 -33 -22 -56t-50 -36z" />
    <glyph glyph-name="uni0137" unicode="&#x137;" horiz-adv-x="328" 
d="M251 0l-102 156l-39 -43v-113h-67v467h67v-280l136 145h75l-128 -134l134 -198h-76zM130 -159q11 6 22.5 16.5t11.5 21.5q0 7 -3.5 13t-8 11t-8 11t-3.5 14q0 10 8.5 19.5t25.5 9.5q15 0 25.5 -12.5t10.5 -35.5q0 -33 -22 -56t-50 -36z" />
    <glyph glyph-name="kgreenlandic" unicode="&#x138;" horiz-adv-x="328" 
d="M110 337v-150l136 145h75l-128 -134l134 -198h-76l-102 156l-39 -43v-113h-67v337h67z" />
    <glyph glyph-name="Lacute" unicode="&#x139;" horiz-adv-x="325" 
d="M49 0v467h71v-406h186l-10 -61h-247zM167 519h-69l87 86h82z" />
    <glyph glyph-name="lacute" unicode="&#x13a;" horiz-adv-x="159" 
d="M154 6q-19 -11 -54 -11q-4 0 -13 1t-18.5 6t-16.5 15t-7 27v423h67v-407q0 -18 16 -18h8.5t9.5 2zM84 519h-69l87 86h82z" />
    <glyph glyph-name="uni013B" unicode="&#x13b;" horiz-adv-x="325" 
d="M49 0v467h71v-406h186l-10 -61h-247zM133 -159q11 6 22.5 16.5t11.5 21.5q0 7 -3.5 13t-8 11t-8 11t-3.5 14q0 10 8.5 19.5t25.5 9.5q15 0 25.5 -12.5t10.5 -35.5q0 -33 -22 -56t-50 -36z" />
    <glyph glyph-name="uni013C" unicode="&#x13c;" horiz-adv-x="159" 
d="M154 6q-19 -11 -54 -11q-4 0 -13 1t-18.5 6t-16.5 15t-7 27v423h67v-407q0 -18 16 -18h8.5t9.5 2zM50 -159q11 6 22.5 16.5t11.5 21.5q0 7 -3.5 13t-8 11t-8 11t-3.5 14q0 10 8.5 19.5t25.5 9.5q15 0 25.5 -12.5t10.5 -35.5q0 -33 -22 -56t-50 -36z" />
    <glyph glyph-name="Lcaron" unicode="&#x13d;" horiz-adv-x="325" 
d="M49 0v467h71v-406h186l-10 -61h-247zM180 361q11 6 22.5 16.5t11.5 21.5q0 7 -3.5 13t-8 11t-8 11t-3.5 14q0 10 8.5 19.5t25.5 9.5q15 0 25.5 -12.5t10.5 -35.5q0 -33 -22 -56t-50 -36z" />
    <glyph glyph-name="lcaron" unicode="&#x13e;" horiz-adv-x="189" 
d="M154 6q-19 -11 -54 -11q-4 0 -13 1t-18.5 6t-16.5 15t-7 27v423h67v-407q0 -18 16 -18h8.5t9.5 2zM152 361q11 6 22.5 16.5t11.5 21.5q0 7 -3.5 13t-8 11t-8 11t-3.5 14q0 10 8.5 19.5t25.5 9.5q15 0 25.5 -12.5t10.5 -35.5q0 -33 -22 -56t-50 -36z" />
    <glyph glyph-name="Ldot" unicode="&#x13f;" horiz-adv-x="325" 
d="M49 0v467h71v-406h186l-10 -61h-247zM289 239q0 -17 -12.5 -29.5t-29.5 -12.5t-29.5 12.5t-12.5 29.5t12.5 29.5t29.5 12.5t29.5 -12.5t12.5 -29.5z" />
    <glyph glyph-name="ldot" unicode="&#x140;" horiz-adv-x="251" 
d="M154 6q-19 -11 -54 -11q-4 0 -13 1t-18.5 6t-16.5 15t-7 27v423h67v-407q0 -18 16 -18h8.5t9.5 2zM246 239q0 -17 -12.5 -29.5t-29.5 -12.5t-29.5 12.5t-12.5 29.5t12.5 29.5t29.5 12.5t29.5 -12.5t12.5 -29.5z" />
    <glyph glyph-name="Lslash" unicode="&#x141;" horiz-adv-x="343" 
d="M67 0v218l-55 -42v61l55 42v188h71v-134l86 65v-61l-86 -65v-211h186l-10 -61h-247z" />
    <glyph glyph-name="lslash" unicode="&#x142;" horiz-adv-x="189" 
d="M172 6q-9 -5 -22.5 -8t-30.5 -3q-4 0 -13 1t-18 6t-16 14.5t-7 26.5v171l-48 -36v57l48 37v195h65v-147l49 36v-57l-49 -37v-203q0 -18 17 -18h8t9 2z" />
    <glyph glyph-name="Nacute" unicode="&#x143;" horiz-adv-x="442" 
d="M320 0l-202 352v-352h-69v467h73l203 -352v352h68v-467h-73zM216 519h-69l87 86h82z" />
    <glyph glyph-name="nacute" unicode="&#x144;" horiz-adv-x="374" 
d="M369 6q-20 -11 -54 -11q-4 0 -13 1t-18.5 6t-16.5 15t-7 27v180q0 32 -9.5 42.5t-32.5 10.5q-17 0 -33.5 -5.5t-31.5 -13t-26 -16l-17 -13.5v-229h-67v332h67v-44q9 9 22.5 17.5t29.5 16t33 12t33 4.5q23 0 41.5 -4t31 -15.5t19.5 -32.5t7 -56v-170q0 -18 16 -18h8.5
t9.5 2zM187 382h-69l87 86h82z" />
    <glyph glyph-name="uni0145" unicode="&#x145;" horiz-adv-x="442" 
d="M320 0l-202 352v-352h-69v467h73l203 -352v352h68v-467h-73zM184 -159q11 6 22.5 16.5t11.5 21.5q0 7 -3.5 13t-8 11t-8 11t-3.5 14q0 10 8.5 19.5t25.5 9.5q15 0 25.5 -12.5t10.5 -35.5q0 -33 -22 -56t-50 -36z" />
    <glyph glyph-name="uni0146" unicode="&#x146;" horiz-adv-x="374" 
d="M369 6q-20 -11 -54 -11q-4 0 -13 1t-18.5 6t-16.5 15t-7 27v180q0 32 -9.5 42.5t-32.5 10.5q-17 0 -33.5 -5.5t-31.5 -13t-26 -16l-17 -13.5v-229h-67v332h67v-44q9 9 22.5 17.5t29.5 16t33 12t33 4.5q23 0 41.5 -4t31 -15.5t19.5 -32.5t7 -56v-170q0 -18 16 -18h8.5
t9.5 2zM143 -159q11 6 22.5 16.5t11.5 21.5q0 7 -3.5 13t-8 11t-8 11t-3.5 14q0 10 8.5 19.5t25.5 9.5q15 0 25.5 -12.5t10.5 -35.5q0 -33 -22 -56t-50 -36z" />
    <glyph glyph-name="Ncaron" unicode="&#x147;" horiz-adv-x="442" 
d="M320 0l-202 352v-352h-69v467h73l203 -352v352h68v-467h-73zM195 519l-78 85h66l44 -51l43 51h66l-78 -85h-63z" />
    <glyph glyph-name="ncaron" unicode="&#x148;" horiz-adv-x="374" 
d="M369 6q-20 -11 -54 -11q-4 0 -13 1t-18.5 6t-16.5 15t-7 27v180q0 32 -9.5 42.5t-32.5 10.5q-17 0 -33.5 -5.5t-31.5 -13t-26 -16l-17 -13.5v-229h-67v332h67v-44q9 9 22.5 17.5t29.5 16t33 12t33 4.5q23 0 41.5 -4t31 -15.5t19.5 -32.5t7 -56v-170q0 -18 16 -18h8.5
t9.5 2zM161 382l-78 85h66l44 -51l43 51h66l-78 -85h-63z" />
    <glyph glyph-name="Eng" unicode="&#x14a;" horiz-adv-x="442" 
d="M208 -70q14 -4 31 -6.5t30 -2.5q26 0 41 10t15 46v23l-207 352v-352h-69v467h73l203 -352v352h68v-467q0 -41 -6.5 -67.5t-19.5 -42t-33 -21.5t-48 -6q-11 0 -32.5 1.5t-32.5 4.5z" />
    <glyph glyph-name="eng" unicode="&#x14b;" horiz-adv-x="374" 
d="M260 224q0 32 -9.5 42.5t-32.5 10.5q-17 0 -33.5 -5.5t-31.5 -13t-26 -16l-17 -13.5v-229h-67v332h67v-44q9 9 22.5 17.5t29.5 16t33 12t33 4.5q23 0 41.5 -4t31 -15.5t19.5 -32.5t7 -56v-262q0 -22 -3 -41t-13 -33.5t-28 -22.5t-49 -8q-14 0 -32.5 2.5t-35.5 8.5l13 55
q9 -3 21.5 -5.5t22.5 -2.5q20 0 28.5 7.5t8.5 31.5v264z" />
    <glyph glyph-name="Omacron" unicode="&#x14c;" horiz-adv-x="475" 
d="M238 -7q-39 0 -75.5 12t-64 39.5t-44 73.5t-16.5 115t16.5 115t44 74.5t64 40.5t75.5 12t75 -12t63.5 -40.5t44 -74.5t16.5 -115t-16.5 -115t-44 -73.5t-63.5 -39.5t-75 -12zM238 56q27 0 50 8t40.5 28t27 54t9.5 87t-9.5 87.5t-27 55t-40.5 28.5t-50 8t-50.5 -8
t-40.5 -28.5t-27 -55t-10 -87.5t10 -87t27 -54t40.5 -28t50.5 -8zM144 540v42h188v-42h-188z" />
    <glyph glyph-name="omacron" unicode="&#x14d;" horiz-adv-x="390" 
d="M195 -5q-32 0 -61 7t-51.5 26t-35.5 52t-13 85q0 51 13 84.5t35.5 53t51.5 27.5t61 8t61.5 -8t51.5 -27.5t35 -53t13 -84.5q0 -52 -13 -85t-35.5 -52t-51.5 -26t-61 -7zM195 46q19 0 36 4t29 17t19 36.5t7 61.5q0 39 -7 62.5t-19 37t-29 18t-36 4.5q-20 0 -36.5 -4.5
t-28.5 -18t-18.5 -37t-6.5 -62.5q0 -38 6.5 -61.5t18.5 -36.5t28.5 -17t36.5 -4zM101 403v42h188v-42h-188z" />
    <glyph glyph-name="Obreve" unicode="&#x14e;" horiz-adv-x="475" 
d="M238 -7q-39 0 -75.5 12t-64 39.5t-44 73.5t-16.5 115t16.5 115t44 74.5t64 40.5t75.5 12t75 -12t63.5 -40.5t44 -74.5t16.5 -115t-16.5 -115t-44 -73.5t-63.5 -39.5t-75 -12zM238 56q27 0 50 8t40.5 28t27 54t9.5 87t-9.5 87.5t-27 55t-40.5 28.5t-50 8t-50.5 -8
t-40.5 -28.5t-27 -55t-10 -87.5t10 -87t27 -54t40.5 -28t50.5 -8zM329 606q-2 -45 -27 -67t-65 -22t-64 22t-26 67h45q2 -22 13.5 -36t32.5 -14t32 14t13 36h46z" />
    <glyph glyph-name="obreve" unicode="&#x14f;" horiz-adv-x="390" 
d="M195 -5q-32 0 -61 7t-51.5 26t-35.5 52t-13 85q0 51 13 84.5t35.5 53t51.5 27.5t61 8t61.5 -8t51.5 -27.5t35 -53t13 -84.5q0 -52 -13 -85t-35.5 -52t-51.5 -26t-61 -7zM195 46q19 0 36 4t29 17t19 36.5t7 61.5q0 39 -7 62.5t-19 37t-29 18t-36 4.5q-20 0 -36.5 -4.5
t-28.5 -18t-18.5 -37t-6.5 -62.5q0 -38 6.5 -61.5t18.5 -36.5t28.5 -17t36.5 -4zM286 469q-2 -45 -27 -67t-65 -22t-64 22t-26 67h45q2 -22 13.5 -36t32.5 -14t32 14t13 36h46z" />
    <glyph glyph-name="Ohungarumlaut" unicode="&#x150;" horiz-adv-x="475" 
d="M238 -7q-39 0 -75.5 12t-64 39.5t-44 73.5t-16.5 115t16.5 115t44 74.5t64 40.5t75.5 12t75 -12t63.5 -40.5t44 -74.5t16.5 -115t-16.5 -115t-44 -73.5t-63.5 -39.5t-75 -12zM238 56q27 0 50 8t40.5 28t27 54t9.5 87t-9.5 87.5t-27 55t-40.5 28.5t-50 8t-50.5 -8
t-40.5 -28.5t-27 -55t-10 -87.5t10 -87t27 -54t40.5 -28t50.5 -8zM299 519h-69l87 86h82zM166 519h-69l87 86h82z" />
    <glyph glyph-name="ohungarumlaut" unicode="&#x151;" horiz-adv-x="390" 
d="M195 -5q-32 0 -61 7t-51.5 26t-35.5 52t-13 85q0 51 13 84.5t35.5 53t51.5 27.5t61 8t61.5 -8t51.5 -27.5t35 -53t13 -84.5q0 -52 -13 -85t-35.5 -52t-51.5 -26t-61 -7zM195 46q19 0 36 4t29 17t19 36.5t7 61.5q0 39 -7 62.5t-19 37t-29 18t-36 4.5q-20 0 -36.5 -4.5
t-28.5 -18t-18.5 -37t-6.5 -62.5q0 -38 6.5 -61.5t18.5 -36.5t28.5 -17t36.5 -4zM276 382h-69l87 86h82zM143 382h-69l87 86h82z" />
    <glyph glyph-name="OE" unicode="&#x152;" horiz-adv-x="674" 
d="M365 0v36q-26 -24 -58.5 -34t-68.5 -10q-39 0 -75.5 12t-64 39.5t-44 73.5t-16.5 115t16.5 115.5t44 75t64 40.5t75.5 12q36 0 68.5 -10.5t58.5 -34.5v37h280l-10 -61h-199v-137h182l-11 -60h-171v-148h209l-10 -61h-270zM238 55q27 0 50 8t40.5 28t27 54t9.5 87
t-9.5 87.5t-27 55t-40.5 29t-50 8.5t-50.5 -8.5t-40.5 -29t-27 -55t-10 -87.5t10 -87t27 -54t40.5 -28t50.5 -8z" />
    <glyph glyph-name="oe" unicode="&#x153;" horiz-adv-x="600" 
d="M546 11q-20 -8 -43.5 -12t-62.5 -4q-50 0 -80.5 13.5t-46.5 36.5q-23 -29 -55 -39.5t-66 -10.5q-32 0 -60.5 7t-50 26t-34.5 51t-13 83t13 83.5t34.5 52t50 27t60.5 7.5q35 0 68 -11.5t56 -42.5q16 23 43 38.5t70 15.5q41 0 68 -12.5t43 -33t22.5 -46t6.5 -52.5
q0 -8 -0.5 -19.5t-2.5 -22.5h-216q-1 -58 25.5 -79.5t72.5 -21.5q35 0 64.5 7.5t46.5 15.5zM508 191q4 37 -14 64.5t-65 27.5q-45 0 -61 -27t-18 -65h158zM192 45q19 0 35.5 4t28.5 17t18.5 35.5t6.5 60.5t-6.5 61.5t-18.5 36.5t-28.5 17.5t-35.5 4.5q-20 0 -36 -4.5
t-28 -17.5t-18.5 -36.5t-6.5 -61.5t6.5 -60.5t18.5 -35.5t28 -17t36 -4z" />
    <glyph glyph-name="Racute" unicode="&#x154;" horiz-adv-x="399" 
d="M295 0l-90 172h-85v-172h-71v467h149q86 0 123.5 -40.5t37.5 -107.5q0 -50 -22 -84.5t-61 -50.5l99 -184h-80zM213 233q13 0 26 3.5t23.5 13.5t17 26t6.5 42q0 40 -20 64t-53 24h-93v-173h93zM184 519h-69l87 86h82z" />
    <glyph glyph-name="racute" unicode="&#x155;" horiz-adv-x="246" 
d="M43 0v332h67v-43q10 23 27.5 36t34.5 13q19 0 34.5 -5.5t27.5 -12.5l-12 -55q-14 5 -26.5 7.5t-28.5 2.5q-11 0 -20 -5t-16.5 -12t-12.5 -14.5t-8 -12.5v-231h-67zM128 382h-69l87 86h82z" />
    <glyph glyph-name="uni0156" unicode="&#x156;" horiz-adv-x="399" 
d="M295 0l-90 172h-85v-172h-71v467h149q86 0 123.5 -40.5t37.5 -107.5q0 -50 -22 -84.5t-61 -50.5l99 -184h-80zM213 233q13 0 26 3.5t23.5 13.5t17 26t6.5 42q0 40 -20 64t-53 24h-93v-173h93zM155 -159q11 6 22.5 16.5t11.5 21.5q0 7 -3.5 13t-8 11t-8 11t-3.5 14
q0 10 8.5 19.5t25.5 9.5q15 0 25.5 -12.5t10.5 -35.5q0 -33 -22 -56t-50 -36z" />
    <glyph glyph-name="uni0157" unicode="&#x157;" horiz-adv-x="246" 
d="M43 0v332h67v-43q10 23 27.5 36t34.5 13q19 0 34.5 -5.5t27.5 -12.5l-12 -55q-14 5 -26.5 7.5t-28.5 2.5q-11 0 -20 -5t-16.5 -12t-12.5 -14.5t-8 -12.5v-231h-67zM33 -159q11 6 22.5 16.5t11.5 21.5q0 7 -3.5 13t-8 11t-8 11t-3.5 14q0 10 8.5 19.5t25.5 9.5
q15 0 25.5 -12.5t10.5 -35.5q0 -33 -22 -56t-50 -36z" />
    <glyph glyph-name="Rcaron" unicode="&#x158;" horiz-adv-x="399" 
d="M295 0l-90 172h-85v-172h-71v467h149q86 0 123.5 -40.5t37.5 -107.5q0 -50 -22 -84.5t-61 -50.5l99 -184h-80zM213 233q13 0 26 3.5t23.5 13.5t17 26t6.5 42q0 40 -20 64t-53 24h-93v-173h93zM158 519l-78 85h66l44 -51l43 51h66l-78 -85h-63z" />
    <glyph glyph-name="rcaron" unicode="&#x159;" horiz-adv-x="246" 
d="M43 0v332h67v-43q10 23 27.5 36t34.5 13q19 0 34.5 -5.5t27.5 -12.5l-12 -55q-14 5 -26.5 7.5t-28.5 2.5q-11 0 -20 -5t-16.5 -12t-12.5 -14.5t-8 -12.5v-231h-67zM102 382l-78 85h66l44 -51l43 51h66l-78 -85h-63z" />
    <glyph glyph-name="Sacute" unicode="&#x15a;" horiz-adv-x="349" 
d="M37 86q22 -11 55.5 -20t66.5 -9q16 0 33 3t31 10.5t23.5 20t9.5 32.5q0 22 -16.5 38.5t-41.5 30t-54.5 27t-54.5 30.5t-41.5 40t-16.5 55q0 66 42.5 98.5t118.5 32.5q33 0 61.5 -7t53.5 -19l-11 -65q-26 12 -53 20t-53 8q-28 0 -45 -5.5t-26.5 -14.5t-12.5 -19.5
t-3 -19.5q0 -19 16.5 -33.5t41.5 -27.5t54 -26.5t54 -31t41.5 -41t16.5 -56.5q0 -36 -13 -63t-35.5 -45t-53 -27t-66.5 -9q-32 0 -67.5 5.5t-65.5 19.5zM189 519h-69l87 86h82z" />
    <glyph glyph-name="sacute" unicode="&#x15b;" horiz-adv-x="303" 
d="M46 68q13 -6 39.5 -13t47.5 -7q36 0 58 9.5t22 38.5q0 15 -12.5 25t-32 18t-41.5 16t-41.5 19.5t-32 28.5t-12.5 43q0 27 11.5 44.5t30.5 28t42.5 15t46.5 4.5q31 0 54 -4.5t40 -12.5l-11 -54q-20 9 -40.5 13.5t-40.5 4.5q-67 0 -67 -35q0 -14 12.5 -22.5t32 -16
l41.5 -15.5t41.5 -21t32 -31.5t12.5 -47.5q0 -23 -10.5 -42t-28.5 -32t-42.5 -20t-52.5 -7q-38 0 -65.5 4t-48.5 11zM166 382h-69l87 86h82z" />
    <glyph glyph-name="Scircumflex" unicode="&#x15c;" horiz-adv-x="349" 
d="M37 86q22 -11 55.5 -20t66.5 -9q16 0 33 3t31 10.5t23.5 20t9.5 32.5q0 22 -16.5 38.5t-41.5 30t-54.5 27t-54.5 30.5t-41.5 40t-16.5 55q0 66 42.5 98.5t118.5 32.5q33 0 61.5 -7t53.5 -19l-11 -65q-26 12 -53 20t-53 8q-28 0 -45 -5.5t-26.5 -14.5t-12.5 -19.5
t-3 -19.5q0 -19 16.5 -33.5t41.5 -27.5t54 -26.5t54 -31t41.5 -41t16.5 -56.5q0 -36 -13 -63t-35.5 -45t-53 -27t-66.5 -9q-32 0 -67.5 5.5t-65.5 19.5zM218 520l-44 51l-43 -51h-66l78 86h63l78 -86h-66z" />
    <glyph glyph-name="scircumflex" unicode="&#x15d;" horiz-adv-x="303" 
d="M46 68q13 -6 39.5 -13t47.5 -7q36 0 58 9.5t22 38.5q0 15 -12.5 25t-32 18t-41.5 16t-41.5 19.5t-32 28.5t-12.5 43q0 27 11.5 44.5t30.5 28t42.5 15t46.5 4.5q31 0 54 -4.5t40 -12.5l-11 -54q-20 9 -40.5 13.5t-40.5 4.5q-67 0 -67 -35q0 -14 12.5 -22.5t32 -16
l41.5 -15.5t41.5 -21t32 -31.5t12.5 -47.5q0 -23 -10.5 -42t-28.5 -32t-42.5 -20t-52.5 -7q-38 0 -65.5 4t-48.5 11zM205 383l-44 51l-43 -51h-66l78 86h63l78 -86h-66z" />
    <glyph glyph-name="Scedilla" unicode="&#x15e;" horiz-adv-x="349" 
d="M37 86q22 -11 55.5 -20t66.5 -9q16 0 33 3t31 10.5t23.5 20t9.5 32.5q0 22 -16.5 38.5t-41.5 30t-54.5 27t-54.5 30.5t-41.5 40t-16.5 55q0 66 42.5 98.5t118.5 32.5q33 0 61.5 -7t53.5 -19l-11 -65q-26 12 -53 20t-53 8q-28 0 -45 -5.5t-26.5 -14.5t-12.5 -19.5
t-3 -19.5q0 -19 16.5 -33.5t41.5 -27.5t54 -26.5t54 -31t41.5 -41t16.5 -56.5q0 -36 -13 -63t-35.5 -45t-53 -27t-66.5 -9q-32 0 -67.5 5.5t-65.5 19.5zM87 -151l62 108h74l-77 -108h-59z" />
    <glyph glyph-name="scedilla" unicode="&#x15f;" horiz-adv-x="303" 
d="M46 68q13 -6 39.5 -13t47.5 -7q36 0 58 9.5t22 38.5q0 15 -12.5 25t-32 18t-41.5 16t-41.5 19.5t-32 28.5t-12.5 43q0 27 11.5 44.5t30.5 28t42.5 15t46.5 4.5q31 0 54 -4.5t40 -12.5l-11 -54q-20 9 -40.5 13.5t-40.5 4.5q-67 0 -67 -35q0 -14 12.5 -22.5t32 -16
l41.5 -15.5t41.5 -21t32 -31.5t12.5 -47.5q0 -23 -10.5 -42t-28.5 -32t-42.5 -20t-52.5 -7q-38 0 -65.5 4t-48.5 11zM74 -151l62 108h74l-77 -108h-59z" />
    <glyph glyph-name="Scaron" unicode="&#x160;" horiz-adv-x="349" 
d="M37 86q22 -11 55.5 -20t66.5 -9q16 0 33 3t31 10.5t23.5 20t9.5 32.5q0 22 -16.5 38.5t-41.5 30t-54.5 27t-54.5 30.5t-41.5 40t-16.5 55q0 66 42.5 98.5t118.5 32.5q33 0 61.5 -7t53.5 -19l-11 -65q-26 12 -53 20t-53 8q-28 0 -45 -5.5t-26.5 -14.5t-12.5 -19.5
t-3 -19.5q0 -19 16.5 -33.5t41.5 -27.5t54 -26.5t54 -31t41.5 -41t16.5 -56.5q0 -36 -13 -63t-35.5 -45t-53 -27t-66.5 -9q-32 0 -67.5 5.5t-65.5 19.5zM147 519l-78 85h66l44 -51l43 51h66l-78 -85h-63z" />
    <glyph glyph-name="scaron" unicode="&#x161;" horiz-adv-x="303" 
d="M46 68q13 -6 39.5 -13t47.5 -7q36 0 58 9.5t22 38.5q0 15 -12.5 25t-32 18t-41.5 16t-41.5 19.5t-32 28.5t-12.5 43q0 27 11.5 44.5t30.5 28t42.5 15t46.5 4.5q31 0 54 -4.5t40 -12.5l-11 -54q-20 9 -40.5 13.5t-40.5 4.5q-67 0 -67 -35q0 -14 12.5 -22.5t32 -16
l41.5 -15.5t41.5 -21t32 -31.5t12.5 -47.5q0 -23 -10.5 -42t-28.5 -32t-42.5 -20t-52.5 -7q-38 0 -65.5 4t-48.5 11zM128 382l-78 85h66l44 -51l43 51h66l-78 -85h-63z" />
    <glyph glyph-name="uni0162" unicode="&#x162;" horiz-adv-x="362" 
d="M145 0v406h-117v61h313l-9 -61h-117v-406h-70zM137 -159q11 6 22.5 16.5t11.5 21.5q0 7 -3.5 13t-8 11t-8 11t-3.5 14q0 10 8.5 19.5t25.5 9.5q15 0 25.5 -12.5t10.5 -35.5q0 -33 -22 -56t-50 -36z" />
    <glyph glyph-name="uni0163" unicode="&#x163;" horiz-adv-x="223" 
d="M208 8q-17 -6 -31.5 -9.5t-42.5 -3.5q-35 0 -52 18t-17 67v199h-53l11 53h42v89l66 22v-111h69v-53h-69v-191q0 -26 7.5 -32t26.5 -6q7 0 17 2.5t16 5.5zM87 -159q11 6 22.5 16.5t11.5 21.5q0 7 -3.5 13t-8 11t-8 11t-3.5 14q0 10 8.5 19.5t25.5 9.5q15 0 25.5 -12.5
t10.5 -35.5q0 -33 -22 -56t-50 -36z" />
    <glyph glyph-name="Tcaron" unicode="&#x164;" horiz-adv-x="362" 
d="M145 0v406h-117v61h313l-9 -61h-117v-406h-70zM150 519l-78 85h66l44 -51l43 51h66l-78 -85h-63z" />
    <glyph glyph-name="tcaron" unicode="&#x165;" horiz-adv-x="223" 
d="M156 373q9 5 19.5 14.5t10.5 19.5q0 13 -10 21.5t-10 22.5q0 9 7.5 17.5t22.5 8.5q14 0 23.5 -11t9.5 -32q0 -30 -20 -50.5t-45 -32.5zM208 8q-17 -6 -31.5 -9.5t-42.5 -3.5q-35 0 -52 18t-17 67v199h-53l11 53h42v89l66 22v-111h69v-53h-69v-191q0 -26 7.5 -32t26.5 -6
q7 0 17 2.5t16 5.5z" />
    <glyph glyph-name="Tbar" unicode="&#x166;" horiz-adv-x="362" 
d="M145 0v214h-112v61h112v131h-117v61h313l-9 -61h-117v-131h121v-61h-121v-214h-70z" />
    <glyph glyph-name="tbar" unicode="&#x167;" horiz-adv-x="223" 
d="M208 8q-17 -6 -31.5 -9.5t-42.5 -3.5q-35 0 -52 18t-17 67v66h-48v53h48v80h-53l11 53h42v89l66 22v-111h69v-53h-69v-80h69v-53h-69v-58q0 -26 7.5 -32t26.5 -6q7 0 17 2.5t16 5.5z" />
    <glyph glyph-name="Utilde" unicode="&#x168;" horiz-adv-x="438" 
d="M321 467h70v-308q0 -23 -5 -51.5t-23 -54t-52 -43t-92 -17.5q-57 0 -91 17.5t-52 43t-23.5 54t-5.5 51.5v308h71v-312q0 -51 28.5 -73.5t72.5 -22.5q45 0 73.5 23t28.5 73v312zM336 605q-3 -42 -15 -64.5t-47 -22.5q-12 0 -27 6.5t-30.5 15t-29 15t-21.5 6.5
q-12 0 -15 -11t-4 -31h-45q2 40 14.5 65.5t47.5 25.5q12 0 27 -7t29.5 -15l28 -15t23.5 -7q11 0 14.5 11t4.5 28h45z" />
    <glyph glyph-name="utilde" unicode="&#x169;" horiz-adv-x="368" 
d="M363 6q-10 -5 -24 -8t-29 -3q-20 0 -31.5 7t-16.5 15.5t-6 16.5t-1 10q-17 -15 -47.5 -32t-64.5 -17q-23 0 -41.5 4t-31.5 15.5t-20 32.5t-7 56v229h67v-222q0 -35 9.5 -44.5t32.5 -9.5q16 0 32 5t30.5 12t25 15.5t15.5 14.5v229h66v-272q0 -18 17 -18h8.5t9.5 2z
M301 468q-3 -42 -15 -64.5t-47 -22.5q-12 0 -27 6.5t-30.5 15t-29 15t-21.5 6.5q-12 0 -15 -11t-4 -31h-45q2 40 14.5 65.5t47.5 25.5q12 0 27 -7t29.5 -15l28 -15t23.5 -7q11 0 14.5 11t4.5 28h45z" />
    <glyph glyph-name="Umacron" unicode="&#x16a;" horiz-adv-x="438" 
d="M321 467h70v-308q0 -23 -5 -51.5t-23 -54t-52 -43t-92 -17.5q-57 0 -91 17.5t-52 43t-23.5 54t-5.5 51.5v308h71v-312q0 -51 28.5 -73.5t72.5 -22.5q45 0 73.5 23t28.5 73v312zM125 540v42h188v-42h-188z" />
    <glyph glyph-name="umacron" unicode="&#x16b;" horiz-adv-x="368" 
d="M363 6q-10 -5 -24 -8t-29 -3q-20 0 -31.5 7t-16.5 15.5t-6 16.5t-1 10q-17 -15 -47.5 -32t-64.5 -17q-23 0 -41.5 4t-31.5 15.5t-20 32.5t-7 56v229h67v-222q0 -35 9.5 -44.5t32.5 -9.5q16 0 32 5t30.5 12t25 15.5t15.5 14.5v229h66v-272q0 -18 17 -18h8.5t9.5 2zM90 403
v42h188v-42h-188z" />
    <glyph glyph-name="Ubreve" unicode="&#x16c;" horiz-adv-x="438" 
d="M321 467h70v-308q0 -23 -5 -51.5t-23 -54t-52 -43t-92 -17.5q-57 0 -91 17.5t-52 43t-23.5 54t-5.5 51.5v308h71v-312q0 -51 28.5 -73.5t72.5 -22.5q45 0 73.5 23t28.5 73v312zM310 606q-2 -45 -27 -67t-65 -22t-64 22t-26 67h45q2 -22 13.5 -36t32.5 -14t32 14t13 36h46
z" />
    <glyph glyph-name="ubreve" unicode="&#x16d;" horiz-adv-x="368" 
d="M363 6q-10 -5 -24 -8t-29 -3q-20 0 -31.5 7t-16.5 15.5t-6 16.5t-1 10q-17 -15 -47.5 -32t-64.5 -17q-23 0 -41.5 4t-31.5 15.5t-20 32.5t-7 56v229h67v-222q0 -35 9.5 -44.5t32.5 -9.5q16 0 32 5t30.5 12t25 15.5t15.5 14.5v229h66v-272q0 -18 17 -18h8.5t9.5 2z
M275 469q-2 -45 -27 -67t-65 -22t-64 22t-26 67h45q2 -22 13.5 -36t32.5 -14t32 14t13 36h46z" />
    <glyph glyph-name="Uring" unicode="&#x16e;" horiz-adv-x="438" 
d="M321 467h70v-308q0 -23 -5 -51.5t-23 -54t-52 -43t-92 -17.5q-57 0 -91 17.5t-52 43t-23.5 54t-5.5 51.5v308h71v-312q0 -51 28.5 -73.5t72.5 -22.5q45 0 73.5 23t28.5 73v312zM279 574q0 -25 -17.5 -42t-42.5 -17q-24 0 -41.5 17t-17.5 42t18 42.5t43 17.5t41.5 -17.5
t16.5 -42.5zM250 574q0 13 -9 21.5t-22 8.5q-12 0 -21 -8.5t-9 -21.5t9 -21.5t21 -8.5q13 0 22 8.5t9 21.5z" />
    <glyph glyph-name="uring" unicode="&#x16f;" horiz-adv-x="368" 
d="M363 6q-10 -5 -24 -8t-29 -3q-20 0 -31.5 7t-16.5 15.5t-6 16.5t-1 10q-17 -15 -47.5 -32t-64.5 -17q-23 0 -41.5 4t-31.5 15.5t-20 32.5t-7 56v229h67v-222q0 -35 9.5 -44.5t32.5 -9.5q16 0 32 5t30.5 12t25 15.5t15.5 14.5v229h66v-272q0 -18 17 -18h8.5t9.5 2z
M244 437q0 -25 -17.5 -42t-42.5 -17q-24 0 -41.5 17t-17.5 42t18 42.5t43 17.5t41.5 -17.5t16.5 -42.5zM215 437q0 13 -9 21.5t-22 8.5q-12 0 -21 -8.5t-9 -21.5t9 -21.5t21 -8.5q13 0 22 8.5t9 21.5z" />
    <glyph glyph-name="Uhungarumlaut" unicode="&#x170;" horiz-adv-x="438" 
d="M321 467h70v-308q0 -23 -5 -51.5t-23 -54t-52 -43t-92 -17.5q-57 0 -91 17.5t-52 43t-23.5 54t-5.5 51.5v308h71v-312q0 -51 28.5 -73.5t72.5 -22.5q45 0 73.5 23t28.5 73v312zM290 519h-69l87 86h82zM157 519h-69l87 86h82z" />
    <glyph glyph-name="uhungarumlaut" unicode="&#x171;" horiz-adv-x="368" 
d="M363 6q-10 -5 -24 -8t-29 -3q-20 0 -31.5 7t-16.5 15.5t-6 16.5t-1 10q-17 -15 -47.5 -32t-64.5 -17q-23 0 -41.5 4t-31.5 15.5t-20 32.5t-7 56v229h67v-222q0 -35 9.5 -44.5t32.5 -9.5q16 0 32 5t30.5 12t25 15.5t15.5 14.5v229h66v-272q0 -18 17 -18h8.5t9.5 2z
M255 382h-69l87 86h82zM122 382h-69l87 86h82z" />
    <glyph glyph-name="Uogonek" unicode="&#x172;" horiz-adv-x="438" 
d="M289 -143q-6 -2 -17.5 -3.5t-17.5 -1.5q-46 0 -66 20t-20 52q0 20 14 39t30 30q-55 1 -87.5 19t-50 43.5t-22.5 53.5t-5 50v308h71v-312q0 -51 28.5 -73.5t72.5 -22.5q45 0 73.5 23t28.5 73v312h70v-308q0 -19 -3.5 -43t-15 -46.5t-33.5 -41.5t-58 -28h1
q-21 -11 -41.5 -32.5t-20.5 -44.5q0 -14 9.5 -23.5t31.5 -9.5q6 0 14.5 1t19.5 4z" />
    <glyph glyph-name="uogonek" unicode="&#x173;" horiz-adv-x="368" 
d="M354 -143q-6 -2 -17.5 -3.5t-17.5 -1.5q-46 0 -66 20t-20 52q0 12 5 23.5t13 21.5t17 17.5t18 12.5q-12 4 -18 11t-9 14t-3.5 12.5t-0.5 7.5q-17 -15 -47.5 -32t-64.5 -17q-23 0 -41.5 4t-31.5 15.5t-20 32.5t-7 56v229h67v-222q0 -35 9.5 -44.5t32.5 -9.5q16 0 32 5
t30.5 12t25 15.5t15.5 14.5v229h66v-272q0 -18 17 -18h8.5t9.5 2l7 -38q-7 -4 -17 -6q-21 -11 -41 -32.5t-20 -44.5q0 -14 9.5 -23.5t31.5 -9.5q6 0 14.5 1t19.5 4z" />
    <glyph glyph-name="Wcircumflex" unicode="&#x174;" horiz-adv-x="610" 
d="M391 0l-86 364l-86 -364h-73l-127 467h73l90 -380l88 380h70l88 -380l89 380h74l-128 -467h-72zM349 520l-44 51l-43 -51h-66l78 86h63l78 -86h-66z" />
    <glyph glyph-name="wcircumflex" unicode="&#x175;" horiz-adv-x="469" 
d="M296 0l-61 238l-61 -238h-67l-95 332h66l64 -255l63 255h60l64 -255l62 255h66l-93 -332h-68zM278 383l-44 51l-43 -51h-66l78 86h63l78 -86h-66z" />
    <glyph glyph-name="Ycircumflex" unicode="&#x176;" horiz-adv-x="397" 
d="M164 0v194l-156 273h80l110 -203l111 203h80l-155 -273v-194h-70zM242 520l-44 51l-43 -51h-66l78 86h63l78 -86h-66z" />
    <glyph glyph-name="ycircumflex" unicode="&#x177;" horiz-adv-x="318" 
d="M9 332h71l86 -238l72 238h72l-119 -344q-13 -37 -26 -61t-28 -38.5t-32.5 -20t-39.5 -5.5q-23 0 -43 4.5t-26 7.5l13 56q12 -5 26.5 -7.5t28.5 -2.5q7 0 15 1.5t17 9.5t19 25.5t20 50.5zM203 383l-44 51l-43 -51h-66l78 86h63l78 -86h-66z" />
    <glyph glyph-name="Ydieresis" unicode="&#x178;" horiz-adv-x="397" 
d="M164 0v194l-156 273h80l110 -203l111 203h80l-155 -273v-194h-70zM307 562q0 -17 -12.5 -29.5t-29.5 -12.5t-29.5 12.5t-12.5 29.5t12.5 29.5t29.5 12.5t29.5 -12.5t12.5 -29.5zM174 562q0 -17 -12.5 -29.5t-29.5 -12.5t-29.5 12.5t-12.5 29.5t12.5 29.5t29.5 12.5
t29.5 -12.5t12.5 -29.5z" />
    <glyph glyph-name="Zacute" unicode="&#x179;" horiz-adv-x="380" 
d="M29 0v45l219 361h-210l11 61h290v-46l-220 -360h225v-61h-315zM195 519h-69l87 86h82z" />
    <glyph glyph-name="zacute" unicode="&#x17a;" horiz-adv-x="287" 
d="M31 0v44l153 235h-151l13 53h223v-39l-157 -240h160v-53h-241zM158 382h-69l87 86h82z" />
    <glyph glyph-name="Zdotaccent" unicode="&#x17b;" horiz-adv-x="380" 
d="M29 0v45l219 361h-210l11 61h290v-46l-220 -360h225v-61h-315zM242 562q0 -17 -12.5 -29.5t-29.5 -12.5t-29.5 12.5t-12.5 29.5t12.5 29.5t29.5 12.5t29.5 -12.5t12.5 -29.5z" />
    <glyph glyph-name="zdotaccent" unicode="&#x17c;" horiz-adv-x="287" 
d="M31 0v44l153 235h-151l13 53h223v-39l-157 -240h160v-53h-241zM201 425q0 -17 -12.5 -29.5t-29.5 -12.5t-29.5 12.5t-12.5 29.5t12.5 29.5t29.5 12.5t29.5 -12.5t12.5 -29.5z" />
    <glyph glyph-name="Zcaron" unicode="&#x17d;" horiz-adv-x="380" 
d="M29 0v45l219 361h-210l11 61h290v-46l-220 -360h225v-61h-315zM162 519l-78 85h66l44 -51l43 51h66l-78 -85h-63z" />
    <glyph glyph-name="zcaron" unicode="&#x17e;" horiz-adv-x="287" 
d="M31 0v44l153 235h-151l13 53h223v-39l-157 -240h160v-53h-241zM120 382l-78 85h66l44 -51l43 51h66l-78 -85h-63z" />
    <glyph glyph-name="florin" unicode="&#x192;" horiz-adv-x="296" 
d="M-19 -69q15 -4 31 -4q29 0 49.5 19t23.5 68l13 192h-52l11 52h44l4 70q3 47 13 76t27 44.5t40.5 21t52.5 5.5q18 0 31.5 -3t24.5 -8l-12 -58q-11 5 -22.5 8.5t-25.5 3.5q-15 0 -26.5 -3t-19.5 -12t-12.5 -25.5t-5.5 -43.5l-4 -76h66v-52h-70l-12 -194q-5 -68 -41 -104
t-104 -36q-16 0 -32 3z" />
    <glyph glyph-name="AEacute" unicode="&#x1fc;" horiz-adv-x="616" 
d="M307 0v115h-154l-61 -115h-75l253 467h317l-11 -61h-199v-137h182l-10 -60h-172v-148h210l-11 -61h-269zM307 407l-124 -233h124v233zM393 519h-69l87 86h82z" />
    <glyph glyph-name="aeacute" unicode="&#x1fd;" horiz-adv-x="539" 
d="M485 11q-22 -8 -45.5 -12t-60.5 -4q-49 0 -79 16.5t-47 42.5q-6 -9 -15 -19.5t-23 -19t-33 -14.5t-44 -6q-52 0 -81.5 22t-29.5 73q0 31 12 52t32.5 33.5t46.5 17.5t54 5q12 0 27 -0.5t26 -2.5v30q0 18 -6.5 28.5t-17.5 16t-25 7t-29 1.5q-32 0 -56.5 -6t-40.5 -12l11 54
q16 6 41.5 12t62.5 6q32 0 59.5 -9t44.5 -35q17 20 40.5 32t58.5 12q40 0 66.5 -12t43 -31.5t23.5 -45t7 -51.5q0 -22 -3 -43h-216q-1 -57 23.5 -80.5t74.5 -23.5q35 0 63 6.5t48 16.5zM447 195q4 35 -14.5 61.5t-64.5 26.5q-42 0 -59.5 -25t-19.5 -63h158zM225 149
q-11 1 -24 2t-23 1q-36 0 -59.5 -11t-23.5 -44q0 -17 7 -27.5t16 -16t19 -7t16 -1.5q30 0 51 22t21 53v29zM264 382h-69l87 86h82z" />
    <glyph glyph-name="Oslashacute" unicode="&#x1fe;" horiz-adv-x="475" 
d="M68 -29l36 68q-30 28 -48 75t-18 119q0 69 16.5 115t44 74.5t64 40.5t75.5 12q49 0 87 -17l20 40h61l-36 -69q31 -28 49 -75.5t18 -120.5q0 -69 -16.5 -115t-44 -73.5t-63.5 -39.5t-75 -12q-23 0 -45.5 4t-42.5 13l-21 -39h-61zM180 67q13 -6 27.5 -8.5t30.5 -2.5
q27 0 50 8t40.5 28t27 54t9.5 87q0 47 -7.5 79t-21.5 53zM294 402q-12 5 -26.5 7.5t-29.5 2.5q-27 0 -50.5 -8t-40.5 -28.5t-27 -55t-10 -87.5q0 -45 7.5 -77t20.5 -52zM232 519h-69l87 86h82z" />
    <glyph glyph-name="oslashacute" unicode="&#x1ff;" horiz-adv-x="390" 
d="M74 -29l25 48q-26 17 -43 51t-17 92q0 51 13 83.5t34.5 52t50 27t60.5 7.5q33 0 63 -9l16 33h45l-26 -49q27 -18 43.5 -52.5t16.5 -92.5q0 -51 -13 -83t-35 -51t-50.5 -26t-59.5 -7q-17 0 -32.5 1.5t-29.5 6.5l-17 -32h-44zM160 50q14 -5 37 -5q19 0 35.5 4t28.5 17
t18.5 35.5t6.5 60.5q0 33 -5 55t-14 36zM235 276q-8 4 -17.5 5t-20.5 1q-20 0 -36 -4.5t-28 -17.5t-18.5 -36.5t-6.5 -61.5q0 -33 5 -54.5t14 -35.5zM190 382h-69l87 86h82z" />
    <glyph glyph-name="uni0218" unicode="&#x218;" horiz-adv-x="349" 
d="M37 86q22 -11 55.5 -20t66.5 -9q16 0 33 3t31 10.5t23.5 20t9.5 32.5q0 22 -16.5 38.5t-41.5 30t-54.5 27t-54.5 30.5t-41.5 40t-16.5 55q0 66 42.5 98.5t118.5 32.5q33 0 61.5 -7t53.5 -19l-11 -65q-26 12 -53 20t-53 8q-28 0 -45 -5.5t-26.5 -14.5t-12.5 -19.5
t-3 -19.5q0 -19 16.5 -33.5t41.5 -27.5t54 -26.5t54 -31t41.5 -41t16.5 -56.5q0 -36 -13 -63t-35.5 -45t-53 -27t-66.5 -9q-32 0 -67.5 5.5t-65.5 19.5zM130 -159q11 6 22.5 16.5t11.5 21.5q0 7 -3.5 13t-8 11t-8 11t-3.5 14q0 10 8.5 19.5t25.5 9.5q15 0 25.5 -12.5
t10.5 -35.5q0 -33 -22 -56t-50 -36z" />
    <glyph glyph-name="uni0219" unicode="&#x219;" horiz-adv-x="303" 
d="M46 68q13 -6 39.5 -13t47.5 -7q36 0 58 9.5t22 38.5q0 15 -12.5 25t-32 18t-41.5 16t-41.5 19.5t-32 28.5t-12.5 43q0 27 11.5 44.5t30.5 28t42.5 15t46.5 4.5q31 0 54 -4.5t40 -12.5l-11 -54q-20 9 -40.5 13.5t-40.5 4.5q-67 0 -67 -35q0 -14 12.5 -22.5t32 -16
l41.5 -15.5t41.5 -21t32 -31.5t12.5 -47.5q0 -23 -10.5 -42t-28.5 -32t-42.5 -20t-52.5 -7q-38 0 -65.5 4t-48.5 11zM111 -159q11 6 22.5 16.5t11.5 21.5q0 7 -3.5 13t-8 11t-8 11t-3.5 14q0 10 8.5 19.5t25.5 9.5q15 0 25.5 -12.5t10.5 -35.5q0 -33 -22 -56t-50 -36z" />
    <glyph glyph-name="uni021A" unicode="&#x21a;" horiz-adv-x="362" 
d="M145 0v406h-117v61h313l-9 -61h-117v-406h-70zM137 -159q11 6 22.5 16.5t11.5 21.5q0 7 -3.5 13t-8 11t-8 11t-3.5 14q0 10 8.5 19.5t25.5 9.5q15 0 25.5 -12.5t10.5 -35.5q0 -33 -22 -56t-50 -36z" />
    <glyph glyph-name="uni021B" unicode="&#x21b;" horiz-adv-x="223" 
d="M208 8q-17 -6 -31.5 -9.5t-42.5 -3.5q-35 0 -52 18t-17 67v199h-53l11 53h42v89l66 22v-111h69v-53h-69v-191q0 -26 7.5 -32t26.5 -6q7 0 17 2.5t16 5.5zM87 -159q11 6 22.5 16.5t11.5 21.5q0 7 -3.5 13t-8 11t-8 11t-3.5 14q0 10 8.5 19.5t25.5 9.5q15 0 25.5 -12.5
t10.5 -35.5q0 -33 -22 -56t-50 -36z" />
    <glyph glyph-name="circumflex" unicode="&#x2c6;" horiz-adv-x="219" 
d="M153 383l-44 51l-43 -51h-66l78 86h63l78 -86h-66z" />
    <glyph glyph-name="caron" unicode="&#x2c7;" horiz-adv-x="219" 
d="M78 382l-78 85h66l44 -51l43 51h66l-78 -85h-63z" />
    <glyph glyph-name="uni02C9" unicode="&#x2c9;" horiz-adv-x="188" 
d="M0 403v42h188v-42h-188z" />
    <glyph glyph-name="breve" unicode="&#x2d8;" horiz-adv-x="182" 
d="M182 469q-2 -45 -27 -67t-65 -22t-64 22t-26 67h45q2 -22 13.5 -36t32.5 -14t32 14t13 36h46z" />
    <glyph glyph-name="dotaccent" unicode="&#x2d9;" horiz-adv-x="84" 
d="M84 425q0 -17 -12.5 -29.5t-29.5 -12.5t-29.5 12.5t-12.5 29.5t12.5 29.5t29.5 12.5t29.5 -12.5t12.5 -29.5z" />
    <glyph glyph-name="ring" unicode="&#x2da;" horiz-adv-x="119" 
d="M119 437q0 -25 -17.5 -42t-42.5 -17q-24 0 -41.5 17t-17.5 42t18 42.5t43 17.5t41.5 -17.5t16.5 -42.5zM90 437q0 13 -9 21.5t-22 8.5q-12 0 -21 -8.5t-9 -21.5t9 -21.5t21 -8.5q13 0 22 8.5t9 21.5z" />
    <glyph glyph-name="ogonek" unicode="&#x2db;" horiz-adv-x="123" 
d="M119 -143q-6 -2 -17.5 -3.5t-17.5 -1.5q-46 0 -66 20t-20 52q0 12 5.5 24t14 22t18 18t18.5 12h58q-21 -11 -41.5 -32.5t-20.5 -44.5q0 -14 9.5 -23.5t31.5 -9.5q6 0 14.5 1t19.5 4z" />
    <glyph glyph-name="tilde" unicode="&#x2dc;" horiz-adv-x="234" 
d="M234 468q-3 -42 -15 -64.5t-47 -22.5q-12 0 -27 6.5t-30.5 15t-29 15t-21.5 6.5q-12 0 -15 -11t-4 -31h-45q2 40 14.5 65.5t47.5 25.5q12 0 27 -7t29.5 -15l28 -15t23.5 -7q11 0 14.5 11t4.5 28h45z" />
    <glyph glyph-name="hungarumlaut" unicode="&#x2dd;" horiz-adv-x="302" 
d="M202 382h-69l87 86h82zM69 382h-69l87 86h82z" />
    <glyph glyph-name="uni03A9" unicode="&#x3a9;" horiz-adv-x="513" 
d="M304 0v54q16 14 33.5 32.5t32.5 44t25 58t10 73.5q0 38 -9.5 70.5t-28.5 56t-47 37t-64 13.5q-34 0 -62 -13t-48.5 -36t-31.5 -56t-11 -72q0 -41 9.5 -73t24.5 -57.5t32.5 -44.5t34.5 -33v-54h-171v54h109q-17 13 -36.5 32.5t-36 46.5t-27 61.5t-10.5 78.5q0 49 16.5 90
t46 71t70.5 47t91 17q53 0 94 -17t69 -46.5t42.5 -70.5t14.5 -89q0 -40 -10 -73.5t-26 -61.5t-36 -49.5t-40 -36.5h111v-54h-171z" />
    <glyph glyph-name="uni03BC" unicode="&#x3bc;" horiz-adv-x="436" 
d="M43 -132v464h67v-222q0 -35 9.5 -44.5t32.5 -9.5q16 0 32 5t30.5 12t25 15.5t15.5 14.5v229h66v-272q0 -18 17 -18h8.5t9.5 2l7 -38q-10 -5 -24 -8t-29 -3q-20 0 -31.5 7t-16.5 15.5t-6 16.5t-1 10q-17 -15 -47.5 -32t-64.5 -17q-9 0 -17 0.5t-16 1.5v-129h-67z" />
    <glyph glyph-name="pi" unicode="&#x3c0;" horiz-adv-x="483" 
d="M447 7q-18 -12 -54 -12q-49 0 -70 28.5t-21 69.5v206h-117v-201q0 -62 -12 -98h-68q7 21 9.5 48t2.5 54v197q-16 0 -36.5 -4.5t-34.5 -11.5l-19 45q15 8 43 15t63 7h312v-51h-75v-197q0 -26 9.5 -41t32.5 -15q11 0 23 5z" />
    <glyph glyph-name="uni060C" unicode="&#x60c;" horiz-adv-x="169" 
d="M141 141q-15 -11 -28.5 -23t-13.5 -24q0 -9 4.5 -16.5t10 -14t10 -14t4.5 -17.5q0 -13 -10.5 -25t-32.5 -12q-19 0 -31.5 16t-12.5 45q0 41 27 69.5t62 45.5z" />
    <glyph glyph-name="uni061B" unicode="&#x61b;" horiz-adv-x="169" 
d="M85 -5q-17 0 -30 13t-13 30q0 18 13 30t30 12t30 -12t13 -30q0 -17 -13 -30t-30 -13zM141 349q-15 -11 -28.5 -23.5t-13.5 -24.5q0 -9 4.5 -16t10 -14t10 -14.5t4.5 -17.5q0 -12 -10.5 -24.5t-32.5 -12.5q-19 0 -31.5 16t-12.5 45q0 41 27 69.5t62 45.5z" />
    <glyph glyph-name="uni061F" unicode="&#x61f;" horiz-adv-x="302" 
d="M191 175v52h-20q-25 0 -47.5 7t-39.5 21.5t-27 37.5t-10 55q0 55 33 87t89 32h86v-65h-86q-29 0 -43.5 -16.5t-14.5 -39.5t14.5 -39t43.5 -16h86v-116h-64zM262 39q0 -17 -11.5 -28t-27.5 -11t-27.5 11t-11.5 28q0 16 11.5 27.5t27.5 11.5t27.5 -11.5t11.5 -27.5z" />
    <glyph glyph-name="uni0640" unicode="&#x640;" horiz-adv-x="103" 
d="M0 0v64h108v-64h-108z" />
    <glyph glyph-name="uni064B" unicode="&#x64b;" 
d="M0 627v27h120v-27h-120zM0 545v27h120v-27h-120z" />
    <glyph glyph-name="uni064C" unicode="&#x64c;" 
d="M184 573l-18 16l-45 -33q-5 -4 -11 -7.5t-13 -3.5q-10 0 -19 11l-30 40l-22 -44l-26 11l17 34q8 14 15 20.5t18 6.5q16 0 28 -17l10 -16q2 -3 6 -7t7 -4q4 0 10 2l36 27q-10 11 -18.5 24t-8.5 28q0 21 16.5 36.5t36.5 15.5q22 0 37.5 -15.5t15.5 -37.5q0 -13 -4 -21.5
t-16 -19.5l-17 -13l17 -16zM169 624l18.5 15t9.5 21q0 10 -7.5 17.5t-17.5 7.5q-9 0 -16.5 -7.5t-7.5 -17.5t5 -17.5t16 -18.5z" />
    <glyph glyph-name="uni064D" unicode="&#x64d;" 
d="M0 -96v27h120v-27h-120zM0 -178v27h120v-27h-120z" />
    <glyph glyph-name="uni064E" unicode="&#x64e;" 
d="M0 545v27h120v-27h-120z" />
    <glyph glyph-name="uni064F" unicode="&#x64f;" 
d="M115 608q12 8 19 16t7 19t-7 17.5t-17 6.5t-17.5 -7t-7.5 -17q0 -15 23 -35zM128 556l-17 17q-25 -16 -49 -29.5t-51 -24.5l-11 23q24 11 46.5 23t44.5 26q-11 12 -19 25t-8 29q0 21 16.5 36t36.5 15q22 0 37.5 -15.5t15.5 -37.5q0 -20 -10 -31t-26 -22l16 -17z" />
    <glyph glyph-name="uni0650" unicode="&#x650;" 
d="M0 -96v27h120v-27h-120z" />
    <glyph glyph-name="uni0651" unicode="&#x651;" 
d="M40 545q-40 0 -40 44v65h27v-65q0 -9 2.5 -13t12.5 -4h35v82h27v-82h35q14 0 14 17v65h28v-63q0 -18 -8.5 -32t-31.5 -14h-101z" />
    <glyph glyph-name="uni0652" unicode="&#x652;" 
d="M106 598q0 -22 -15 -37.5t-38 -15.5q-22 0 -37.5 15.5t-15.5 37.5t15.5 37.5t37.5 15.5t37.5 -15.5t15.5 -37.5zM78 598q0 11 -7.5 17.5t-17.5 6.5t-17 -6.5t-7 -17.5q0 -10 7 -17t17 -7t17.5 7t7.5 17z" />
    <glyph glyph-name="uni0653" unicode="&#x653;" 
d="M129 557q-4 -4 -9 -8t-12 -4t-15 4.5t-16 9.5l-15 9.5t-11 4.5t-7.5 -2.5t-5.5 -4.5l-19 -19l-19 19l24 24q5 5 10 8t13 3q9 0 17 -4t15.5 -9l13.5 -9t11 -4q7 0 13 7l17 18l19 -19z" />
    <glyph glyph-name="uni0654" unicode="&#x654;" 
d="M0 545v27h29q-8 13 -8 26q0 20 13 36.5t39 16.5h28v-27h-18q-33 0 -33 -26q0 -14 9.5 -20t23.5 -6h38v-27h-121z" />
    <glyph glyph-name="uni0655" unicode="&#x655;" 
d="M0 -175v27h29q-8 13 -8 26q0 20 13 36.5t39 16.5h28v-27h-18q-33 0 -33 -26q0 -14 9.5 -20t23.5 -6h38v-27h-121z" />
    <glyph glyph-name="uni0660" unicode="&#x660;" horiz-adv-x="220" 
d="M174 220q0 -26 -18.5 -44.5t-44.5 -18.5t-45.5 18.5t-19.5 44.5t19.5 44.5t45.5 18.5t44.5 -18.5t18.5 -44.5z" />
    <glyph glyph-name="uni0661" unicode="&#x661;" horiz-adv-x="157" 
d="M46 0v467h65v-467h-65z" />
    <glyph glyph-name="uni0662" unicode="&#x662;" horiz-adv-x="309" 
d="M46 0v353q0 54 30.5 84t83.5 30h103v-65h-106q-46 0 -46 -49v-353h-65z" />
    <glyph glyph-name="uni0663" unicode="&#x663;" horiz-adv-x="507" 
d="M111 201v-201h-65v467h65v-202h110v202h65v-202h64q22 0 34 13.5t12 33.5v155h65v-155q0 -22 -7 -42t-21.5 -35.5t-35.5 -24.5t-49 -9h-237z" />
    <glyph glyph-name="uni0664" unicode="&#x664;" horiz-adv-x="323" 
d="M188 0q-33 0 -59 10.5t-44.5 28.5t-28.5 42.5t-10 52.5t12 54t33 45q-19 15 -31.5 43t-12.5 57q0 25 9 49t27 43t45.5 30.5t63.5 11.5h84v-65h-78q-47 0 -67 -21t-20 -48q0 -34 22.5 -51t58.5 -17h84v-63h-84q-36 0 -58.5 -16.5t-22.5 -51.5q0 -20 8 -33.5t20.5 -21.5
t29 -11.5t33.5 -3.5h74v-64h-88z" />
    <glyph glyph-name="uni0665" unicode="&#x665;" horiz-adv-x="382" 
d="M247 346q-4 31 -18.5 44t-38.5 13q-23 0 -37.5 -15t-17.5 -42l-25 -202q-1 -5 -1 -7.5v-4.5q0 -18 7.5 -31.5t19.5 -21.5t26.5 -12t28.5 -4q15 0 29.5 4t26 12t19 21.5t7.5 31.5v4.5t-1 6.5zM333 164q1 -8 1.5 -16.5t0.5 -15.5q0 -37 -14 -62.5t-35 -41t-46.5 -22.5
t-47.5 -7q-25 0 -51 8t-47 23.5t-34.5 39t-13.5 54.5q0 14 3 40l21 172q3 26 10 49.5t21 41.5t35.5 29t54.5 11q34 0 56.5 -11t36 -29.5t20 -42t9.5 -48.5z" />
    <glyph glyph-name="uni0666" unicode="&#x666;" horiz-adv-x="309" 
d="M199 0v353q0 32 -13.5 40.5t-32.5 8.5h-107v65h104q53 0 83 -29t30 -82v-356h-64z" />
    <glyph glyph-name="uni0667" unicode="&#x667;" horiz-adv-x="407" 
d="M295 467h65l-60 -366q-9 -52 -32 -76.5t-64 -24.5q-50 0 -70.5 28.5t-27.5 75.5l-60 363h65l62 -376q2 -11 9.5 -18.5t21.5 -7.5q12 0 20.5 8.5t10.5 21.5z" />
    <glyph glyph-name="uni0668" unicode="&#x668;" horiz-adv-x="407" 
d="M295 0l-60 372q-2 13 -10.5 21.5t-20.5 8.5q-14 0 -21.5 -7.5t-9.5 -18.5l-62 -376h-65l60 363q7 46 27.5 75t70.5 29q41 0 64 -24.5t32 -77.5l60 -365h-65z" />
    <glyph glyph-name="uni0669" unicode="&#x669;" horiz-adv-x="332" 
d="M221 0v201h-55q-59 0 -89.5 31t-30.5 82v40q0 52 32.5 82.5t80.5 30.5h127v-467h-65zM221 403h-64q-23 0 -34.5 -16t-11.5 -33v-40q0 -26 14 -37.5t46 -11.5h50v138z" />
    <glyph glyph-name="uni066A" unicode="&#x66a;" horiz-adv-x="362" 
d="M46 0l200 467h70l-200 -467h-70zM128 379q0 -16 -11 -27.5t-28 -11.5q-16 0 -27.5 11.5t-11.5 27.5t11.5 27.5t27.5 11.5q17 0 28 -11.5t11 -27.5zM274 48q-17 0 -28.5 11.5t-11.5 27.5t11.5 28t28.5 12q15 0 26.5 -12t11.5 -28t-11.5 -27.5t-26.5 -11.5z" />
    <glyph glyph-name="uni066B" unicode="&#x66b;" horiz-adv-x="169" 
d="M27 -66q16 11 29.5 23.5t13.5 24.5q0 9 -4.5 16t-10 13.5t-10 14t-4.5 17.5q0 13 10.5 25t31.5 12q19 0 32 -15.5t13 -44.5q0 -41 -27.5 -70t-62.5 -45z" />
    <glyph glyph-name="uni066C" unicode="&#x66c;" horiz-adv-x="169" 
d="M141 141q-15 -11 -28.5 -23t-13.5 -24q0 -9 4.5 -16.5t10 -14t10 -14t4.5 -17.5q0 -13 -10.5 -25t-32.5 -12q-19 0 -31.5 16t-12.5 45q0 41 27 69.5t62 45.5z" />
    <glyph glyph-name="uni066D" unicode="&#x66d;" horiz-adv-x="400" 
d="M262 0l-61 83l-62 -83l-52 37l64 87l-105 35l20 60l102 -34v110h64v-110l103 34l18 -60l-105 -35l65 -87z" />
    <glyph glyph-name="uni0670" unicode="&#x670;" 
d="M0 545v145h27v-145h-27z" />
    <glyph glyph-name="uni06C2" unicode="&#x6c2;" horiz-adv-x="332" 
d="M286 113q0 -32 -10.5 -54t-27 -35t-38.5 -18.5t-44 -5.5q-25 0 -47 6.5t-38 20.5t-25.5 36t-9.5 52v104q0 54 30 83.5t81 29.5h129v-219zM221 268h-64q-20 0 -33 -10t-13 -39v-99q0 -29 16 -43t39 -14t39 14t16 43v148zM105 411v26h29q-8 14 -8 27q0 20 13 36t39 16h28
v-26h-18q-33 0 -33 -26q0 -14 9.5 -20.5t23.5 -6.5h38v-26h-121z" />
    <glyph glyph-name="uni06C3" unicode="&#x6c3;" horiz-adv-x="332" 
d="M118 411q-17 0 -28.5 12t-11.5 28t11.5 27.5t28.5 11.5q16 0 27.5 -11.5t11.5 -27.5t-11.5 -28t-27.5 -12zM216 411q-16 0 -27.5 12t-11.5 28t11.5 27.5t27.5 11.5t27.5 -11.5t11.5 -27.5t-11.5 -28t-27.5 -12zM286 113q0 -32 -10.5 -54t-27 -35t-38.5 -18.5t-44 -5.5
q-25 0 -47 6.5t-38 20.5t-25.5 36t-9.5 52v104q0 54 30 83.5t81 29.5h129v-219zM221 268h-64q-20 0 -33 -10t-13 -39v-99q0 -29 16 -43t39 -14t39 14t16 43v148z" />
    <glyph glyph-name="uni06F0" unicode="&#x6f0;" horiz-adv-x="220" 
d="M174 220q0 -26 -18.5 -44.5t-44.5 -18.5t-45.5 18.5t-19.5 44.5t19.5 44.5t45.5 18.5t44.5 -18.5t18.5 -44.5z" />
    <glyph glyph-name="uni06F1" unicode="&#x6f1;" horiz-adv-x="157" 
d="M46 0v467h65v-467h-65z" />
    <glyph glyph-name="uni06F2" unicode="&#x6f2;" horiz-adv-x="309" 
d="M46 0v353q0 54 30.5 84t83.5 30h103v-65h-106q-46 0 -46 -49v-353h-65z" />
    <glyph glyph-name="uni06F3" unicode="&#x6f3;" horiz-adv-x="507" 
d="M111 201v-201h-65v467h65v-202h110v202h65v-202h64q22 0 34 13.5t12 33.5v155h65v-155q0 -22 -7 -42t-21.5 -35.5t-35.5 -24.5t-49 -9h-237z" />
    <glyph glyph-name="uni06F4" unicode="&#x6f4;" horiz-adv-x="396" 
d="M46 0v467h65v-79q37 43 84.5 61t101.5 18v-65h-9q-72 0 -116.5 -38t-60.5 -99h40q37 0 61.5 4.5t40 13.5t23.5 23t12 34h62q-4 -48 -25 -76t-50.5 -42t-63 -17.5t-63.5 -3.5h-37v-201h-65z" />
    <glyph glyph-name="uni06F5" unicode="&#x6f5;" horiz-adv-x="407" 
d="M355 156l4 -28.5t2 -29.5q0 -43 -24.5 -71t-62.5 -28q-23 0 -41 13t-31 33q-13 -23 -29.5 -34.5t-40.5 -11.5q-39 0 -62.5 28t-23.5 71q0 15 2 29.5l4 28.5l33 197q5 27 13 48.5t22 36t34.5 22t49.5 7.5q56 0 81.5 -28.5t35.5 -87.5zM262 347q-4 25 -17 41.5t-41 16.5
q-50 0 -59 -58l-31 -205q-2 -8 -3 -17t-1 -17q0 -6 1 -13.5t4.5 -14.5t11 -11.5t19.5 -4.5t21 6t16 15t12 19.5t9 20.5q3 -10 7.5 -20.5t11 -19.5t16.5 -15t23 -6q21 0 28.5 13t7.5 26q0 10 -1.5 19.5t-3.5 19.5z" />
    <glyph glyph-name="uni06F6" unicode="&#x6f6;" horiz-adv-x="417" 
d="M46 0q18 64 48 112t77 90q-38 23 -57.5 53t-19.5 71q0 30 11 55.5t31.5 44.5t50 30t65.5 11q32 0 68 -11v-67q-17 6 -34.5 10t-35.5 4q-36 0 -63.5 -20.5t-27.5 -55.5q0 -31 20.5 -52t49.5 -32q67 41 141 57v-64q-47 -14 -86 -34t-71 -48t-57.5 -66t-44.5 -88h-65z" />
    <glyph glyph-name="uni06F7" unicode="&#x6f7;" horiz-adv-x="407" 
d="M295 467h65l-60 -366q-9 -52 -32 -76.5t-64 -24.5q-50 0 -70.5 28.5t-27.5 75.5l-60 363h65l62 -376q2 -11 9.5 -18.5t21.5 -7.5q12 0 20.5 8.5t10.5 21.5z" />
    <glyph glyph-name="uni06F8" unicode="&#x6f8;" horiz-adv-x="407" 
d="M295 0l-60 372q-2 13 -10.5 21.5t-20.5 8.5q-14 0 -21.5 -7.5t-9.5 -18.5l-62 -376h-65l60 363q7 46 27.5 75t70.5 29q41 0 64 -24.5t32 -77.5l60 -365h-65z" />
    <glyph glyph-name="uni06F9" unicode="&#x6f9;" horiz-adv-x="332" 
d="M221 0v201h-55q-59 0 -89.5 31t-30.5 82v40q0 52 32.5 82.5t80.5 30.5h127v-467h-65zM221 403h-64q-23 0 -34.5 -16t-11.5 -33v-40q0 -26 14 -37.5t46 -11.5h50v138z" />
    <glyph glyph-name="Wgrave" unicode="&#x1e80;" horiz-adv-x="610" 
d="M391 0l-86 364l-86 -364h-73l-127 467h73l90 -380l88 380h70l88 -380l89 380h74l-128 -467h-72zM322 519l-101 86h83l86 -86h-68z" />
    <glyph glyph-name="wgrave" unicode="&#x1e81;" horiz-adv-x="469" 
d="M296 0l-61 238l-61 -238h-67l-95 332h66l64 -255l63 255h60l64 -255l62 255h66l-93 -332h-68zM251 382l-101 86h83l86 -86h-68z" />
    <glyph glyph-name="Wacute" unicode="&#x1e82;" horiz-adv-x="610" 
d="M391 0l-86 364l-86 -364h-73l-127 467h73l90 -380l88 380h70l88 -380l89 380h74l-128 -467h-72zM290 519h-69l87 86h82z" />
    <glyph glyph-name="wacute" unicode="&#x1e83;" horiz-adv-x="469" 
d="M296 0l-61 238l-61 -238h-67l-95 332h66l64 -255l63 255h60l64 -255l62 255h66l-93 -332h-68zM219 382h-69l87 86h82z" />
    <glyph glyph-name="Wdieresis" unicode="&#x1e84;" horiz-adv-x="610" 
d="M391 0l-86 364l-86 -364h-73l-127 467h73l90 -380l88 380h70l88 -380l89 380h74l-128 -467h-72zM414 562q0 -17 -12.5 -29.5t-29.5 -12.5t-29.5 12.5t-12.5 29.5t12.5 29.5t29.5 12.5t29.5 -12.5t12.5 -29.5zM281 562q0 -17 -12.5 -29.5t-29.5 -12.5t-29.5 12.5
t-12.5 29.5t12.5 29.5t29.5 12.5t29.5 -12.5t12.5 -29.5z" />
    <glyph glyph-name="wdieresis" unicode="&#x1e85;" horiz-adv-x="469" 
d="M296 0l-61 238l-61 -238h-67l-95 332h66l64 -255l63 255h60l64 -255l62 255h66l-93 -332h-68zM343 425q0 -17 -12.5 -29.5t-29.5 -12.5t-29.5 12.5t-12.5 29.5t12.5 29.5t29.5 12.5t29.5 -12.5t12.5 -29.5zM210 425q0 -17 -12.5 -29.5t-29.5 -12.5t-29.5 12.5t-12.5 29.5
t12.5 29.5t29.5 12.5t29.5 -12.5t12.5 -29.5z" />
    <glyph glyph-name="Ygrave" unicode="&#x1ef2;" horiz-adv-x="397" 
d="M164 0v194l-156 273h80l110 -203l111 203h80l-155 -273v-194h-70zM195 519l-101 86h83l86 -86h-68z" />
    <glyph glyph-name="ygrave" unicode="&#x1ef3;" horiz-adv-x="318" 
d="M9 332h71l86 -238l72 238h72l-119 -344q-13 -37 -26 -61t-28 -38.5t-32.5 -20t-39.5 -5.5q-23 0 -43 4.5t-26 7.5l13 56q12 -5 26.5 -7.5t28.5 -2.5q7 0 15 1.5t17 9.5t19 25.5t20 50.5zM156 382l-101 86h83l86 -86h-68z" />
    <glyph glyph-name="uni200C" unicode="&#x200c;" 
d="M1 -70v551l-28 -29l-11 10l37 37l-37 36l11 11l36 -37l36 37l11 -11l-36 -36l36 -37l-11 -10l-28 29v-551h-16z" />
    <glyph glyph-name="uni200D" unicode="&#x200d;" 
d="M0 -59v562h15v-562h-15z" />
    <glyph glyph-name="uni200E" unicode="&#x200e;" 
d="M1 -64v569h75l-28 28l10 11l47 -47l-47 -47l-10 11l29 29h-60v-554h-16z" />
    <glyph glyph-name="uni200F" unicode="&#x200f;" 
d="M-1 -71v561h-60l30 -29l-11 -11l-47 47l47 47l11 -11l-28 -28h74v-576h-16z" />
    <glyph glyph-name="endash" unicode="&#x2013;" horiz-adv-x="380" 
d="M15 171v46h350v-46h-350z" />
    <glyph glyph-name="emdash" unicode="&#x2014;" horiz-adv-x="730" 
d="M15 171v46h700v-46h-700z" />
    <glyph glyph-name="quoteleft" unicode="&#x2018;" horiz-adv-x="151" 
d="M133 477q-11 -7 -25.5 -19.5t-14.5 -24.5q0 -9 4.5 -16t9.5 -13.5t9.5 -13.5t4.5 -16q0 -12 -10.5 -23.5t-30.5 -11.5q-18 0 -30 15t-12 42q0 39 26 66.5t59 42.5z" />
    <glyph glyph-name="quoteright" unicode="&#x2019;" horiz-adv-x="151" 
d="M18 367q11 7 26 19.5t15 25.5q0 9 -4.5 15.5t-9.5 13t-9.5 13.5t-4.5 16q0 12 10 23.5t30 11.5q18 0 30 -15t12 -42q0 -39 -26 -66.5t-59 -42.5z" />
    <glyph glyph-name="quotesinglbase" unicode="&#x201a;" horiz-adv-x="151" 
d="M18 -59q11 7 25.5 19.5t14.5 24.5q0 9 -4.5 16t-9.5 13.5t-9.5 13.5t-4.5 16q0 12 10.5 23.5t30.5 11.5q18 0 30 -15t12 -42q0 -39 -26 -66.5t-59 -43.5z" />
    <glyph glyph-name="quotedblleft" unicode="&#x201c;" horiz-adv-x="262" 
d="M244 477q-11 -7 -25.5 -19.5t-14.5 -24.5q0 -9 4.5 -16t9.5 -13.5t9.5 -13.5t4.5 -16q0 -12 -10 -23.5t-31 -11.5q-18 0 -30 15t-12 42q0 19 7 36t19 30.5t27.5 24t31.5 18.5zM133 477q-11 -7 -25.5 -19.5t-14.5 -24.5q0 -9 4.5 -16t9.5 -13.5t9.5 -13.5t4.5 -16
q0 -12 -10.5 -23.5t-30.5 -11.5q-18 0 -30 15t-12 42q0 39 26 66.5t59 42.5z" />
    <glyph glyph-name="quotedblright" unicode="&#x201d;" horiz-adv-x="262" 
d="M129 367q12 7 26.5 19.5t14.5 25.5q0 9 -4.5 15.5t-9.5 13t-9.5 13.5t-4.5 16q0 12 10 23.5t30 11.5q18 0 30 -15t12 -42q0 -39 -26 -66.5t-58 -42.5zM18 367q11 7 26 19.5t15 25.5q0 9 -4.5 15.5t-9.5 13t-9.5 13.5t-4.5 16q0 12 10 23.5t30 11.5q18 0 30 -15t12 -42
q0 -39 -26 -66.5t-59 -42.5z" />
    <glyph glyph-name="quotedblbase" unicode="&#x201e;" horiz-adv-x="262" 
d="M129 -59q11 7 26 19.5t15 24.5q0 9 -4.5 16t-9.5 13.5t-9.5 13.5t-4.5 16q0 12 10 23.5t30 11.5q18 0 30 -15t12 -42q0 -39 -26 -66.5t-59 -43.5zM18 -59q11 7 25.5 19.5t14.5 24.5q0 9 -4.5 16t-9.5 13.5t-9.5 13.5t-4.5 16q0 12 10.5 23.5t30.5 11.5q18 0 30 -15
t12 -42q0 -39 -26 -66.5t-59 -43.5z" />
    <glyph glyph-name="dagger" unicode="&#x2020;" horiz-adv-x="314" 
d="M121 -46l11 355l-89 -11v65l89 -11l-11 160h71l-10 -160l89 11v-65l-89 11l10 -355h-71z" />
    <glyph glyph-name="daggerdbl" unicode="&#x2021;" horiz-adv-x="314" 
d="M121 -46l11 160l-89 -10v64l89 -11v152l-89 -11v65l89 -11l-11 160h71l-10 -160l89 11v-65l-89 11v-152l89 11v-64l-89 10l10 -160h-71z" />
    <glyph glyph-name="bullet" unicode="&#x2022;" horiz-adv-x="278" 
d="M240 211q0 -21 -8 -39t-22 -31.5t-32 -21.5t-39 -8t-39.5 8t-32 21.5t-21.5 31.5t-8 39t8 39.5t21.5 32t32 21.5t39.5 8t39 -8t32 -21.5t22 -32t8 -39.5z" />
    <glyph glyph-name="ellipsis" unicode="&#x2026;" horiz-adv-x="430" 
d="M394 36q0 -17 -13.5 -29t-30.5 -12t-29.5 12t-12.5 29q0 18 12.5 31t29.5 13t30.5 -13t13.5 -31zM268 36q0 -17 -13.5 -29t-30.5 -12t-29.5 12t-12.5 29q0 18 12.5 31t29.5 13t30.5 -13t13.5 -31zM142 36q0 -17 -13.5 -29t-30.5 -12t-29.5 12t-12.5 29q0 18 12.5 31
t29.5 13t30.5 -13t13.5 -31z" />
    <glyph glyph-name="perthousand" unicode="&#x2030;" horiz-adv-x="964" 
d="M815 -6q-25 0 -47.5 6.5t-40 22t-28 41t-10.5 63.5t10.5 64t28 41.5t40 22t47.5 6.5q24 0 46.5 -6.5t40 -22t27.5 -41.5t10 -64t-10 -63.5t-27.5 -41t-40 -22t-46.5 -6.5zM514 -6q-25 0 -47.5 6.5t-40 22t-28 41t-10.5 63.5t10.5 64t28 41.5t40 22t47.5 6.5
q24 0 46.5 -6.5t40 -22t27.5 -41.5t10 -64t-10 -63.5t-27.5 -41t-40 -22t-46.5 -6.5zM188 0l240 467h43l-240 -467h-43zM150 208q-24 0 -47 6.5t-40 22t-27.5 41t-10.5 63.5t10.5 63.5t27.5 41.5t40 22.5t47 6.5q25 0 47.5 -6.5t39.5 -22.5t27.5 -41.5t10.5 -63.5
t-10.5 -63.5t-27.5 -41t-40 -22t-47 -6.5zM815 31q16 0 30 4t24.5 15t16 29.5t5.5 47.5t-5.5 48t-16 30t-24.5 15t-30 4q-17 0 -31 -4t-24.5 -15t-16 -30t-5.5 -48t5.5 -47.5t16 -29.5t24.5 -15t31 -4zM514 31q16 0 30 4t24.5 15t16 29.5t5.5 47.5t-5.5 48t-16 30t-24.5 15
t-30 4q-17 0 -31 -4t-24.5 -15t-16 -30t-5.5 -48t5.5 -47.5t16 -29.5t24.5 -15t31 -4zM150 245q17 0 31 4t24.5 14.5t16 29.5t5.5 48t-5.5 48t-16 29.5t-24.5 14.5t-31 4t-31 -4t-24.5 -14.5t-16 -29.5t-5.5 -48t5.5 -47.5t16 -29.5t24.5 -15t31 -4z" />
    <glyph glyph-name="guilsinglleft" unicode="&#x2039;" horiz-adv-x="200" 
d="M126 66l-85 120l85 117h52l-76 -117l76 -120h-52z" />
    <glyph glyph-name="guilsinglright" unicode="&#x203a;" horiz-adv-x="200" 
d="M22 66l76 120l-76 117h51l85 -117l-85 -120h-51z" />
    <glyph glyph-name="fraction" unicode="&#x2044;" horiz-adv-x="325" 
d="M15 -12l253 491h42l-252 -491h-43z" />
    <glyph glyph-name="Euro" unicode="&#x20ac;" horiz-adv-x="441" 
d="M384 8q-19 -7 -46.5 -11t-47.5 -4q-79 0 -132.5 40t-70.5 124h-59v51h54q-1 17 0 36h-54v51h59q7 40 22.5 73t40 57t58 37t75.5 13q22 0 39 -1.5t30 -4.5t23.5 -7l20.5 -8l-12 -59q-20 10 -44 15.5t-53 5.5q-55 0 -87 -32t-43 -89h207l-9 -51h-203q-1 -7 -1 -16.5v-19.5
h196l-11 -51h-178q9 -36 26.5 -57t37.5 -31.5t39.5 -13.5t32.5 -3q23 0 49.5 5t52.5 15z" />
    <glyph glyph-name="uni2113" unicode="&#x2113;" horiz-adv-x="357" 
d="M295 36q-14 -14 -39 -30t-58 -16q-40 0 -63 25q-14 14 -20.5 37t-6.5 49v68l-41 -44l-24 32l65 68v154q0 65 25 98t68 33q21 0 35 -7.5t22.5 -19t12.5 -25.5t4 -26q0 -51 -23 -94.5t-58 -87.5l-25 -29v-116q0 -35 12.5 -50t32.5 -15q19 0 34 11t26 22zM169 280l15 20
q22 31 34.5 63.5t12.5 59.5q0 16 -6 27t-20 11q-17 0 -26.5 -17.5t-9.5 -56.5v-107z" />
    <glyph glyph-name="trademark" unicode="&#x2122;" horiz-adv-x="431" 
d="M350 284v140l-39 -140h-39l-39 140v-140h-34v183h54l38 -143l39 143h53v-183h-33zM82 284v151h-44v32h128l-5 -32h-44v-151h-35z" />
    <glyph glyph-name="Omega" unicode="&#x2126;" horiz-adv-x="513" 
d="M304 0v54q16 14 33.5 32.5t32.5 44t25 58t10 73.5q0 38 -9.5 70.5t-28.5 56t-47 37t-64 13.5q-34 0 -62 -13t-48.5 -36t-31.5 -56t-11 -72q0 -41 9.5 -73t24.5 -57.5t32.5 -44.5t34.5 -33v-54h-171v54h109q-17 13 -36.5 32.5t-36 46.5t-27 61.5t-10.5 78.5q0 49 16.5 90
t46 71t70.5 47t91 17q53 0 94 -17t69 -46.5t42.5 -70.5t14.5 -89q0 -40 -10 -73.5t-26 -61.5t-36 -49.5t-40 -36.5h111v-54h-171z" />
    <glyph glyph-name="estimated" unicode="&#x212e;" horiz-adv-x="472" 
d="M410 98q-16 -24 -33.5 -43.5t-39 -33.5t-47.5 -21.5t-59 -7.5q-47 0 -84.5 17t-64 46.5t-41 69t-14.5 84.5t14 84.5t40.5 69t64.5 46.5t86 17t86 -17t64 -46.5t40.5 -69t15.5 -84.5h-322v-144q23 -23 52 -35t63 -12q56 0 92 26t62 69zM346 352q-22 22 -52 35t-63 13
q-68 0 -115 -47v-118h230v117z" />
    </font>
</defs>
</svg>
